<?xml version="1.0" standalone="no"?>
<!DOCTYPE svg PUBLIC "-//W3C//DTD SVG 1.1//EN" "http://www.w3.org/Graphics/SVG/1.1/DTD/svg11.dtd" >
<svg xmlns="http://www.w3.org/2000/svg">
<metadata>Generated by IcoMoon</metadata>
<defs>
<font id="icomoon" horiz-adv-x="1024">
<font-face units-per-em="1024" ascent="960" descent="-64" />
<missing-glyph horiz-adv-x="1024" />
<glyph unicode="&#x20;" horiz-adv-x="512" d="" />
<glyph unicode="&#xe900;" glyph-name="arrow-right-style-3" d="M561.152 560.64h-63.488l90.112-90.112h-239.616v-45.056h241.664l-92.16-90.112h63.488l114.688 112.64z" />
<glyph unicode="&#xe901;" glyph-name="link" d="M226.611 575.283c-14.139 14.532-22.859 34.4-22.859 56.305 0 1.302 0.031 2.597 0.092 3.884l-0.007-0.182c-0.028 0.95-0.045 2.068-0.045 3.189 0 32.19 13.355 61.261 34.827 81.975l0.034 0.033c18.773 18.946 43.959 31.511 72.030 34.166l0.469 0.036c4.489 0.807 9.656 1.269 14.931 1.269 22.612 0 43.243-8.483 58.883-22.44l-0.087 0.076 122.245-123.494c17.007-16.091 27.592-38.819 27.592-64.019 0-0.75-0.009-1.497-0.028-2.242l0.002 0.11c-0.023-9.41-1.337-18.504-3.775-27.126l0.171 0.707-180.961 181.248c-7.286 5.097-16.331 8.145-26.089 8.145-5.021 0-9.854-0.807-14.376-2.299l0.324 0.093c-14.284-3.080-26.681-9.776-36.598-19.084l0.041 0.038c-12.655-12.485-20.494-29.825-20.494-48.995 0-0.487 0.005-0.973 0.015-1.458l-0.001 0.072c-0.028-0.536-0.044-1.165-0.044-1.796 0-8.921 3.189-17.098 8.488-23.453l-0.048 0.059 182.17-181.248c-8.436-2.936-18.16-4.631-28.28-4.631-25.762 0-48.957 10.988-65.156 28.533l-0.055 0.060zM797.061 320.717c14.137-14.591 22.851-34.51 22.851-56.463 0-1.246-0.028-2.486-0.084-3.719l0.006 0.175c0.030-0.98 0.048-2.134 0.048-3.291 0-32.159-13.358-61.198-34.828-81.872l-0.036-0.034c-19.121-18.74-44.423-31.238-72.57-34.158l-0.524-0.044c-4.415-0.789-9.498-1.24-14.686-1.24-22.489 0-42.999 8.475-58.509 22.406l0.081-0.071-122.245 123.494c-17.007 16.061-27.594 38.765-27.594 63.941 0 0.777 0.010 1.551 0.030 2.323l-0.002-0.114c0.023 9.41 1.337 18.504 3.775 27.126l-0.171-0.707 180.961-181.248c7.286-5.097 16.331-8.145 26.089-8.145 5.021 0 9.854 0.807 14.376 2.299l-0.324-0.093c14.284 3.080 26.681 9.776 36.598 19.084l-0.041-0.038c12.595 12.488 20.393 29.798 20.393 48.929 0 0.51-0.006 1.020-0.017 1.527l0.001-0.076c0.027 0.526 0.042 1.142 0.042 1.762 0 8.932-3.188 17.12-8.487 23.488l0.048-0.060-182.149 181.248c8.435 2.937 18.158 4.633 28.277 4.633 25.757 0 48.947-10.989 65.139-28.534l0.055-0.061zM417.157 578.765l225.28-225.485c5.133-4.261 8.378-10.642 8.378-17.782 0-0.085 0-0.169-0.001-0.253v0.013c0.001-0.093 0.002-0.204 0.002-0.314 0-7.191-2.982-13.686-7.777-18.316l-0.007-0.007c-4.543-4.8-10.958-7.787-18.072-7.787-0.177 0-0.354 0.002-0.53 0.006h0.026c-0.161-0.004-0.35-0.007-0.54-0.007-7.041 0-13.32 3.263-17.408 8.359l-0.034 0.044-225.28 225.485c-5.144 4.242-8.398 10.616-8.398 17.751 0 0.096 0.001 0.191 0.002 0.286v-0.014c-0.002 0.104-0.002 0.226-0.002 0.348 0 7.181 2.983 13.665 7.777 18.281l0.008 0.008c4.669 4.803 11.19 7.783 18.408 7.783 0.059 0 0.117 0 0.176-0.001h-0.009c0.077 0.001 0.169 0.001 0.26 0.001 7.125 0 13.491-3.255 17.69-8.359l0.032-0.040z" />
<glyph unicode="&#xe902;" glyph-name="volume" d="M578.867 704c12.301-0.818 22.251-9.929 24.348-21.754l0.023-0.16v-467.968c-2.181-11.994-12.078-21.123-24.276-22.112l-0.096-0.006h-2.253c-7.138 0.151-13.716 2.427-19.16 6.219l0.114-0.075q-71.27 55.91-108.339 85.402c-24.781 19.661-38.298 30.515-40.346 32.563h-77.619c-0.17-0.003-0.372-0.005-0.573-0.005-9.087 0-17.334 3.593-23.399 9.436l0.011-0.010c-6.17 5.505-10.036 13.48-10.036 22.357 0 0.060 0 0.12 0.001 0.18v-0.009 195.994c-0.001 0.094-0.002 0.206-0.002 0.317 0 8.832 3.869 16.761 10.005 22.183l0.032 0.028c6.108 5.954 14.465 9.627 23.679 9.627 0.099 0 0.199 0 0.298-0.001h77.604q6.144 5.837 148.685 121.856c5.343 3.658 11.929 5.868 19.028 5.939h2.271zM569.242 666.112q-128.717-105.062-135.987-113.050c-6.5-5.601-15.025-9.011-24.347-9.011-0.009 0-0.017 0-0.026 0h-77.618v-195.994h77.619c0.433 0.020 0.941 0.031 1.452 0.031 8.87 0 16.937-3.441 22.938-9.060l-0.019 0.017c5.53-5.325 50.995-41.574 135.987-108.954v436.019zM692.531 448c0.007 0.328 0.010 0.715 0.010 1.102 0 24.807-15.251 46.052-36.888 54.87l-0.396 0.143c-3.946 1.703-6.966 4.923-8.364 8.905l-0.032 0.106c-0.529 1.435-0.834 3.091-0.834 4.819 0 2.595 0.69 5.029 1.895 7.129l-0.037-0.070c3.186 5.783 9.242 9.635 16.197 9.635 2.582 0 5.039-0.531 7.27-1.489l-0.12 0.046c16.554-8.409 30.156-20.503 40.108-35.262l0.237-0.374c9.365-13.903 14.949-31.029 14.949-49.459s-5.584-35.556-15.151-49.779l0.202 0.319c-10.189-15.132-23.792-27.226-39.75-35.36l-0.595-0.275c-2.429-0.522-5.22-0.82-8.080-0.82-0.111 0-0.222 0-0.333 0.001h0.017c-0.143-0.005-0.311-0.007-0.48-0.007-6.317 0-11.785 3.634-14.428 8.925l-0.042 0.093c-1.169 2.030-1.858 4.464-1.858 7.059 0 1.728 0.306 3.385 0.866 4.919l-0.032-0.1c1.431 4.088 4.45 7.308 8.299 8.973l0.098 0.038c22.029 8.937 37.281 30.165 37.281 54.956 0 0.335-0.003 0.67-0.008 1.004l0.001-0.050z" />
<glyph unicode="&#xe903;" glyph-name="pause" d="M440.422 591.36v-286.72c-1.988-37.993-33.278-68.046-71.588-68.046s-69.6 30.053-71.58 67.87l-0.007 0.177v286.72c1.988 37.993 33.278 68.046 71.588 68.046s69.6-30.053 71.58-67.87l0.007-0.177zM583.598 591.36c1.988 37.993 33.278 68.046 71.588 68.046s69.6-30.053 71.58-67.87l0.007-0.177v-286.72c-1.988-37.993-33.278-68.046-71.588-68.046s-69.6 30.053-71.58 67.87l-0.007 0.177v286.72z" />
<glyph unicode="&#xe904;" glyph-name="quote" d="M617.411 220.672h221.184v225.28h-118.784v18.432c0 42.394 8.192 72.294 24.576 90.112 17.56 16.697 41.366 26.968 67.572 26.968 2.888 0 5.747-0.125 8.571-0.369l-0.367 0.026v94.208q-120.832 0-180.224-72.704c-37.21-47.913-59.653-108.908-59.653-175.146 0-4.307 0.095-8.592 0.283-12.853l-0.021 0.606c0-0.137 0-0.3 0-0.464 0-69.873 13.536-136.584 38.13-197.655l-1.266 3.558zM222.147 220.672h221.184v225.28h-118.784v18.432c0 42.394 8.192 72.294 24.576 90.112 17.563 16.696 41.372 26.967 67.579 26.967 2.885 0 5.742-0.124 8.564-0.368l-0.367 0.026v94.208q-120.832 0-180.224-72.704c-37.21-47.913-59.653-108.908-59.653-175.146 0-4.307 0.095-8.592 0.283-12.853l-0.021 0.606c0-0.137 0-0.3 0-0.464 0-69.873 13.536-136.584 38.13-197.655l-1.266 3.558z" />
<glyph unicode="&#xe905;" glyph-name="youtube" d="M929.253 441.58c-10.581 45.973-48.187 79.885-93.448 84.933-107.158 11.97-215.67 12.027-323.653 11.97-108.027 0.056-216.517 0-323.709-11.97-45.239-5.059-82.822-38.972-93.392-84.933-15.065-65.465-15.245-136.926-15.245-204.332s0-138.857 15.065-204.321c10.57-45.962 48.153-79.874 93.414-84.933 107.169-11.982 215.659-12.027 323.675-11.982 108.027-0.056 216.495 0 323.698 11.982 45.239 5.059 82.844 38.972 93.414 84.933 15.053 65.465 15.132 136.914 15.132 204.321-0.011 67.418 0.102 138.868-14.952 204.332zM326.363 390.841h-62.562v-332.438h-58.113v332.438h-61.422v54.454h182.097v-54.454zM484.203 58.392h-52.275v31.451c-20.768-23.805-40.485-35.414-59.694-35.414-16.838 0-28.424 6.821-33.653 21.422-2.846 8.718-4.607 22.518-4.607 42.868v227.957h52.229v-212.249c0-12.241 0-18.599 0.474-20.316 1.254-8.108 5.217-12.219 12.219-12.219 10.48 0 21.434 8.074 33.020 24.46v220.323h52.275l0.011-288.283zM682.652 144.917c0-26.662-1.796-45.871-5.285-58.090-6.979-21.445-20.948-32.399-41.727-32.399-18.588 0-36.521 10.322-53.991 31.891v-27.938h-52.229v386.915h52.229v-126.355c16.871 20.768 34.782 31.27 53.991 31.27 20.779 0 34.759-10.943 41.727-32.523 3.512-11.598 5.285-30.66 5.285-57.955v-114.814zM879.791 193.014h-104.47v-51.1c0-26.685 8.729-40.010 26.685-40.010 12.863 0 20.35 6.99 23.331 20.948 0.486 2.835 1.174 14.444 1.174 35.392h53.291v-7.623c0-16.838-0.644-28.435-1.118-33.653-1.75-11.564-5.861-22.055-12.196-31.292-14.466-20.937-35.9-31.259-63.183-31.259-27.329 0-48.13 9.836-63.229 29.519-11.078 14.432-16.77 37.153-16.77 67.791v100.969c0 30.818 5.048 53.359 16.149 67.926 15.087 19.729 35.877 29.553 62.562 29.553 26.211 0 46.989-9.825 61.625-29.553 10.943-14.568 16.171-37.108 16.171-67.926v-59.683h-0.023zM801.543 303.175c-17.459 0-26.211-13.337-26.211-39.988v-26.674h52.229v26.674c-0.011 26.651-8.741 39.988-26.019 39.988zM607.69 303.175c-8.605 0-17.323-4.065-26.053-12.704v-175.705c8.718-8.741 17.447-12.874 26.053-12.874 15.065 0 22.721 12.874 22.721 38.904v123.047c0 25.996-7.657 39.333-22.721 39.333zM636.87 565.056c19.254 0 39.288 11.699 60.304 35.776v-31.778h52.794v291.344h-52.794v-222.672c-11.699-16.533-22.789-24.709-33.348-24.709-7.069 0-11.225 4.178-12.377 12.366-0.644 1.728-0.644 8.153-0.644 20.519v214.496h-52.625v-230.374c0-20.576 1.762-34.5 4.675-43.319 5.308-14.76 17.018-21.648 34.014-21.648zM269.345 727.39v-158.337h58.542v158.337l70.422 232.61h-59.197l-39.943-153.526-41.558 153.526h-61.602c12.343-36.239 25.183-72.658 37.526-108.931 18.78-54.522 30.502-95.628 35.81-123.679zM476.772 565.056c26.448 0 47.001 9.949 61.58 29.824 11.078 14.579 16.386 37.549 16.386 68.514v102.019c0 31.146-5.296 53.912-16.386 68.627-14.579 19.932-35.121 29.881-61.58 29.881-26.312 0-46.854-9.949-61.467-29.881-11.214-14.715-16.521-37.481-16.521-68.627v-102.019c0-30.965 5.308-53.935 16.521-68.514 14.602-19.875 35.155-29.824 61.467-29.824zM451.578 775.995c0 26.956 8.176 40.394 25.194 40.394s25.172-13.427 25.172-40.394v-122.55c0-26.956-8.153-40.44-25.172-40.44s-25.194 13.484-25.194 40.44v122.55z" />
<glyph unicode="&#xe906;" glyph-name="linkedin" d="M12.665 619.328h219.999v-660.66h-219.999v660.66zM954.665 558.981c-46.213 50.446-107.335 75.674-183.329 75.674-28 0-53.452-3.444-76.344-10.337-22.886-6.888-42.215-16.553-57.998-28.999-15.773-12.446-28.336-24-37.662-34.661-8.869-10.127-17.541-21.924-26.003-35.269v93.944h-219.343l0.672-32.004c0.451-21.34 0.672-87.114 0.672-197.33 0-110.226-0.444-253.999-1.336-431.335h219.333v368.674c0 22.662 2.431 40.658 7.33 54.003 9.34 22.678 23.437 41.664 42.337 56.992 18.898 15.346 42.334 23.012 70.343 23.012 38.211 0 66.332-13.221 84.335-39.665 17.996-26.442 26.995-63 26.995-109.668v-353.325h219.333v378.642c-0.016 97.343-23.11 171.224-69.337 221.654zM123.998 937.331c-36.884 0-66.771-10.786-89.666-32.336-22.893-21.555-34.332-48.767-34.332-81.664 0-32.436 11.11-59.555 33.333-81.327 22.216-21.774 51.553-32.667 87.996-32.667h1.333c37.337 0 67.453 10.884 90.338 32.667 22.886 21.772 34.106 48.882 33.664 81.327-0.444 32.894-11.785 60.109-34.001 81.664-22.213 21.559-51.78 32.336-88.666 32.336z" />
<glyph unicode="&#xe907;" glyph-name="vimeo" d="M874.539 895.787c-141.995 5.163-237.909-76.245-288.512-242.944 26.027 11.648 51.328 16.853 75.819 16.853 52.011 0 75.008-29.739 68.864-88.832-3.072-35.797-25.941-87.851-68.779-156.331-43.051-68.48-75.221-102.784-96.64-102.784-64.939 0-103.979 310.784-117.205 395.648-18.389 117.973-67.413 173.141-147.072 165.419-73.131-6.955-200.747-138.624-301.013-227.883l48.171-62.805c45.867 32.512 72.619 48.811 80.256 48.811 79.829 0 118.485-271.659 180.48-473.685 41.6-111.488 91.477-167.253 151.595-167.253 96.597 0 214.272 91.477 353.707 274.517 134.613 175.232 204.331 313.344 208.811 414.080l0.555 0.427c5.717 135.040-43.563 204.16-149.035 206.763z" />
<glyph unicode="&#xe908;" glyph-name="twitter" d="M333.598 63.56c362.283 0 560.4 300.14 560.4 560.4 0 8.524-0.176 17.014-0.558 25.456 38.454 27.804 71.877 62.501 98.248 101.994-35.29-15.693-73.274-26.243-113.107-31.016 40.661 24.393 71.882 62.965 86.606 108.945-38.055-22.562-80.201-38.953-125.066-47.806-35.941 38.284-87.117 62.225-143.777 62.225-108.763 0-196.972-88.203-196.972-196.931 0-15.464 1.732-30.493 5.108-44.912-163.696 8.237-308.859 86.606-405.991 205.784-16.908-29.102-26.665-62.918-26.665-99 0-68.325 34.773-128.659 87.646-163.943-32.313 0.992-62.665 9.863-89.201 24.628-0.029-0.828-0.029-1.632-0.029-2.513 0-95.389 67.89-175.033 158.025-193.080-16.556-4.503-33.974-6.928-51.939-6.928-12.669 0-25.021 1.245-37.021 3.552 25.074-78.258 97.79-135.205 183.998-136.802-67.415-52.837-152.336-84.311-244.632-84.311-15.875 0-31.567 0.91-46.984 2.73 87.17-55.873 190.679-88.479 301.919-88.479z" />
<glyph unicode="&#xe909;" glyph-name="facebook" d="M767.965 959.787l-132.79 0.213c-149.185 0-245.595-98.913-245.595-252.008v-116.192h-133.514c-11.537 0-20.88-9.353-20.88-20.891v-168.35c0-11.537 9.353-20.88 20.88-20.88h133.514v-424.8c0-11.537 9.343-20.88 20.88-20.88h174.198c11.537 0 20.88 9.353 20.88 20.88v424.8h156.109c11.537 0 20.88 9.343 20.88 20.88l0.064 168.35c0 5.54-2.205 10.845-6.115 14.765s-9.236 6.125-14.776 6.125h-156.163v98.498c0 47.342 11.282 71.375 72.952 71.375l89.453 0.032c11.527 0 20.869 9.353 20.869 20.88v156.322c0 11.516-9.332 20.859-20.848 20.88z" />
<glyph unicode="&#xe90a;" glyph-name="chat-comment-oval-speech-bubble-with-text-lines" d="M512 960c-282.771 0-512-200.617-512-448.084 0-141.386 74.959-267.378 192.084-349.365v-226.552l224.209 136.031c31.122-5.187 62.912-8.031 95.707-8.031 282.771 0 512 200.617 512 448.084s-229.229 447.916-512 447.916zM512 128.084c-37.312 0-73.454 4.35-108.089 11.712l-150.588-90.52 2.008 148.413c-115.451 69.438-191.247 184.22-191.247 314.395-0.167 211.995 200.45 384 447.916 384s448.084-172.005 448.084-384.167-200.617-383.833-448.084-383.833z" />
<glyph unicode="&#xe90b;" glyph-name="search" d="M1015.031-11.778l-248.848 248.848c66.753 76.743 107.168 176.873 107.168 286.311 0 240.901-195.945 436.619-436.619 436.619-240.901 0-436.619-195.945-436.619-436.619s195.945-436.619 436.619-436.619c109.439 0 209.568 40.415 286.311 107.168l248.848-248.848c5.903-5.903 13.85-9.082 21.57-9.082s15.667 2.952 21.57 9.082c11.807 11.807 11.807 31.333 0 43.14zM61.19 523.381c0 207.071 168.472 375.315 375.315 375.315 207.071 0 375.315-168.472 375.315-375.315s-168.245-375.542-375.315-375.542c-206.843 0-375.315 168.472-375.315 375.542z" />
<glyph unicode="&#xe90c;" glyph-name="arrow-down" d="M634.88 492.646l-28.672 27.034-94.208-89.088-94.208 89.088-28.672-27.034 122.88-116.326z" />
<glyph unicode="&#xe90d;" glyph-name="edit-2" d="M384.307 756.92c0.543 0.020 1.182 0.032 1.823 0.032 7.331 0 14.308-1.518 20.632-4.258l-0.336 0.13c6.465-3.019 12.011-6.841 16.818-11.43l-0.024 0.023c5.102-4.652 9.039-10.494 11.378-17.093l0.091-0.295c2.332-6.145 4-13.274 4.686-20.688l0.024-0.325-1.024-385.188-87.654-178.811-92.365 178.811 1.229 385.188c-0.149 1.287-0.234 2.779-0.234 4.291 0 6.071 1.37 11.822 3.818 16.96l-0.102-0.239c3.142 6.723 7.195 12.473 12.086 17.39l-0.003-0.003c4.815 4.853 10.612 8.723 17.069 11.289l0.339 0.119c6.119 2.591 13.234 4.096 20.701 4.096 0.066 0 0.133 0 0.199 0h70.851zM314.675 720.916c-0.372 0.023-0.807 0.036-1.245 0.036-2.563 0-5.022-0.448-7.301-1.271l0.15 0.047c-2.071-1.122-3.833-2.53-5.307-4.198l-0.018-0.020c-1.789-1.65-3.24-3.638-4.254-5.866l-0.047-0.114c-0.783-1.794-1.552-3.994-2.17-6.257l-0.083-0.358 1.024-37.192h106.906l1.229 37.192c-0.65 1.774-1.285 3.99-1.778 6.258l-0.065 0.357c-0.636 2.396-1.929 4.432-3.673 5.969l-0.013 0.011c-1.612 1.799-3.594 3.23-5.832 4.178l-0.107 0.040c-2.114 0.76-4.552 1.199-7.094 1.199-0.242 0-0.484-0.004-0.724-0.012l0.035 0.001h-69.632zM294.4 592.527h109.158l-1.229 37.192h-106.906zM366.285 250.511l36.045 75.612 1.229 230.4h-36.045l1.229-234.004h-37.274l1.229 234.004h-38.298l1.024-230.4 38.502-75.612h32.358zM511.488 756.92h254.362l-1.229-614.4h-251.904zM729.805 178.524l-1.024 542.392h-180.019l-1.229-36.004h73.114l-1.229-35.983h-70.656l-1.229-36.004h37.069l-1.024-37.212h-34.816l-1.229-36.004h73.114l-1.229-35.983h-70.656l-1.229-36.004h37.069l-1.024-37.212h-34.816l-1.229-34.816h73.114l-1.229-36.004h-70.656l-1.229-35.983h37.069l-1.024-37.212h-34.816l-1.229-36.004h73.114l-1.229-35.983h-70.656l-1.229-36.004h182.272z" />
<glyph unicode="&#xe90e;" glyph-name="browser" d="M204.8 719.36h614.4v-542.392h-614.4v542.392zM783.155 683.377h-542.515v-109.199h542.515v109.199zM240.64 212.972h542.515v325.202h-542.515v-325.202zM457.933 611.369v36.065h-36.045v-36.004h36.045zM385.843 611.369v36.065h-37.069v-36.004h37.069zM312.73 611.369v36.065h-36.045v-36.004h36.045z" />
<glyph unicode="&#xe90f;" glyph-name="map-marker" d="M512.205 761.754c0.253 0.001 0.553 0.002 0.853 0.002 29.506 0 57.583-6.117 83.033-17.153l-1.351 0.522c51.156-21.851 91.139-61.635 112.723-111.268l0.532-1.372c10.492-23.993 16.597-51.953 16.597-81.338 0-0.658-0.003-1.316-0.009-1.973l0.001 0.101c-0.903-47.985-11.905-93.181-30.957-133.854l0.852 2.024c-37.473-85.252-82.036-158.752-134.76-225.508l1.64 2.153c-20.89-26.051-32.563-40.325-35.226-42.885l-13.926-16.65-14.131 16.65c-2.662 2.56-14.336 16.835-35.226 42.885-51.084 64.603-95.647 138.103-130.543 216.84l-2.577 6.515c-18.201 38.649-29.203 83.846-30.101 131.514l-0.005 0.316c-0.005 0.556-0.008 1.214-0.008 1.872 0 29.385 6.105 57.345 17.116 82.679l-0.519-1.341c22.115 51.005 62.099 90.789 111.87 112.113l1.384 0.527c24.162 10.514 52.31 16.631 81.886 16.631 0.3 0 0.6-0.001 0.9-0.002h-0.046zM512.205 194.724q16.589 20.48 46.080 60.15c18.886 25.544 37.921 54.809 55.232 85.185l2.317 4.415c16.572 28.689 33.078 62.816 47.2 98.154l1.952 5.536c12.797 29.813 20.557 64.457 21.295 100.826l0.005 0.284c0.001 0.233 0.002 0.508 0.002 0.784 0 24.272-5.203 47.329-14.555 68.117l0.422-1.050c-9.366 21.44-22.146 39.711-37.849 54.992l-0.039 0.037c-15.517 15.090-33.676 27.564-53.7 36.648l-1.187 0.482c-19.811 8.888-42.939 14.065-67.277 14.065s-47.466-5.177-68.344-14.49l1.067 0.425c-21.211-9.566-39.369-22.041-54.93-37.173l0.044 0.043c-15.673-15.362-28.441-33.62-37.447-53.918l-0.441-1.112c-8.803-19.602-13.931-42.489-13.931-66.573 0-0.449 0.002-0.898 0.005-1.346v0.069c0.66-36.628 8.352-71.283 21.776-102.918l-0.682 1.808c16.074-40.874 32.58-75.001 51.272-107.719l-2.12 4.028c19.533-34.68 38.637-63.948 59.395-91.914l-1.642 2.314q29.184-39.69 46.080-60.15v0zM512.205 659.354c0.167 0.001 0.365 0.001 0.563 0.001 31.696 0 60.425-12.704 81.374-33.297l-0.016 0.016c10.088-10.186 18.252-22.298 23.89-35.732l0.277-0.743c5.699-13.226 9.013-28.622 9.013-44.793 0-0.229-0.001-0.458-0.002-0.687v0.035c0.003-0.287 0.004-0.626 0.004-0.966 0-15.839-3.317-30.904-9.294-44.537l0.279 0.713c-6.143-14.101-14.277-26.177-24.206-36.516l0.039 0.041c-10.139-10.505-22.334-18.95-35.946-24.698l-0.713-0.267c-13.409-5.673-29.001-8.97-45.363-8.97s-31.954 3.297-46.148 9.262l0.785-0.293c-14.253 6.018-26.381 14.462-36.419 24.928l-0.036 0.038c-9.956 10.297-18.154 22.372-24.060 35.689l-0.311 0.786c-5.698 12.92-9.015 27.985-9.015 43.824 0 0.34 0.002 0.679 0.005 1.018v-0.052c-0.001 0.194-0.002 0.423-0.002 0.652 0 16.171 3.314 31.568 9.3 45.548l-0.287-0.755c17.766 41.338 58.135 69.761 105.142 69.761 0.404 0 0.807-0.002 1.21-0.006l-0.061 0.001zM512.205 467.354c0.055 0 0.12 0 0.185 0 10.499 0 20.501 2.123 29.603 5.963l-0.501-0.188c9.744 3.991 18.054 9.62 24.979 16.623l0.007 0.007c7.065 6.882 12.694 15.2 16.419 24.486l0.17 0.479c3.748 8.688 5.931 18.803 5.939 29.427v0.003c0.001 0.163 0.002 0.355 0.002 0.548 0 10.88-2.183 21.251-6.136 30.697l0.195-0.525c-3.796 9.587-9.44 17.717-16.545 24.291l-0.043 0.040c-7.023 6.655-15.313 12.059-24.457 15.803l-0.529 0.192c-8.586 3.64-18.57 5.755-29.048 5.755-0.084 0-0.167 0-0.251 0h0.013c-0.071 0-0.156 0-0.241 0-10.548 0-20.602-2.115-29.76-5.944l0.51 0.189c-9.673-3.936-17.962-9.34-25.022-16.029l0.036 0.034c-7.082-6.66-12.712-14.775-16.425-23.876l-0.164-0.454c-3.632-8.78-5.741-18.976-5.741-29.664 0-0.371 0.003-0.742 0.008-1.112l-0.001 0.056c-0.001-0.141-0.001-0.307-0.001-0.473 0-10.445 2.108-20.398 5.923-29.457l-0.187 0.5c7.886-18.941 22.638-33.7 41.072-41.409l0.502-0.186c8.664-3.653 18.736-5.776 29.304-5.776 0.066 0 0.131 0 0.197 0h-0.010z" />
<glyph unicode="&#xe910;" glyph-name="wallet" d="M261.53 701.071h557.875v-446.464h-70.656v-60.006h-487.219c-0.169-0.002-0.369-0.003-0.568-0.003-7.839 0-15.317 1.551-22.142 4.363l0.387-0.141c-7.003 2.945-12.986 6.991-18.027 11.985l0.004-0.004c-4.918 4.863-8.923 10.639-11.74 17.054l-0.139 0.354c-2.722 6.121-4.307 13.262-4.307 20.773 0 0.293 0.002 0.585 0.007 0.877l-0.001-0.044v394.854c-0.001 0.138-0.002 0.3-0.002 0.463 0 7.901 1.814 15.378 5.049 22.037l-0.132-0.3c3.071 6.728 7.060 12.486 11.889 17.419l-0.010-0.011c4.953 4.803 10.701 8.822 17.021 11.835l0.387 0.166c6.418 3.027 13.94 4.794 21.876 4.794 0.157 0 0.314-0.001 0.471-0.002h-0.024zM261.53 230.666h451.174v108.073h-103.219c-0.239-0.004-0.52-0.006-0.802-0.006-7.749 0-15.145 1.506-21.913 4.242l0.393-0.14c-6.954 2.89-12.88 6.951-17.808 11.991l-0.010 0.010c-4.988 4.854-9.057 10.622-11.942 17.037l-0.141 0.35c-2.717 5.928-4.302 12.86-4.302 20.162 0 0.112 0 0.224 0.001 0.335v-0.017 36.004c-0.004 0.239-0.006 0.522-0.006 0.805 0 7.521 1.585 14.672 4.439 21.137l-0.132-0.335c3.043 6.767 7.11 12.539 12.073 17.398l0.010 0.010c4.951 5.023 10.873 9.073 17.464 11.849l0.354 0.132c6.483 2.67 14.010 4.22 21.898 4.22 0.149 0 0.299-0.001 0.448-0.002h103.196v109.199h-456.704c-1.468 0.026-2.875 0.241-4.212 0.622l0.116-0.028c-1.638 0.389-3.072 0.778-4.301 1.188-1.191 0.39-2.561 0.615-3.983 0.615-0.040 0-0.079 0-0.119-0.001h0.006c-0.98 0.058-1.846 0.504-2.455 1.184l-0.003 0.003v-346.788c0.031-2.643 0.709-5.122 1.884-7.292l-0.041 0.083c1.217-2.514 2.581-4.678 4.154-6.67l-0.058 0.076c1.577-1.901 3.665-3.328 6.053-4.072l0.091-0.024c2.331-0.771 5.014-1.215 7.8-1.215 0.21 0 0.419 0.003 0.627 0.008l-0.031-0.001zM609.485 374.682h173.875v73.196h-173.875c-0.116 0.003-0.252 0.004-0.388 0.004-2.91 0-5.665-0.666-8.12-1.855l0.111 0.049c-2.305-1.037-4.273-2.415-5.938-4.095l-0.001-0.001c-1.607-1.589-3.028-3.361-4.23-5.285l-0.071-0.122c-1.168-2.066-1.857-4.537-1.857-7.169 0-0.223 0.005-0.445 0.015-0.666l-0.001 0.031v-36.004c0-0.036-0.001-0.078-0.001-0.121 0-2.397 0.687-4.634 1.874-6.525l-0.030 0.051c1.254-2.045 2.676-3.812 4.294-5.379l0.007-0.007c1.657-1.734 3.627-3.153 5.821-4.17l0.119-0.049c2.331-1.128 5.070-1.787 7.963-1.787 0.153 0 0.305 0.002 0.456 0.005h-0.023zM783.36 290.714v48.026h-34.611v-48.005h34.611zM748.749 483.922h34.611v181.187h-521.83c-2.694-0.024-5.229-0.688-7.465-1.846l0.092 0.043c-2.506-1.288-4.652-2.648-6.664-4.176l0.11 0.080c-1.903-1.522-3.331-3.566-4.072-5.914l-0.024-0.087c-0.782-2.365-1.233-5.087-1.233-7.914 0-0.17 0.002-0.339 0.005-0.508v0.025c-0.001-0.063-0.001-0.136-0.001-0.21 0-2.3 0.452-4.494 1.272-6.499l-0.041 0.115c0.796-2.057 2.228-3.72 4.052-4.789l0.044-0.024c1.863-1.098 4.026-2.108 6.288-2.908l0.265-0.082c2.199-0.755 4.732-1.196 7.367-1.208h487.225v-145.183z" />
<glyph unicode="&#xe911;" glyph-name="trophy" d="M818.995 719.278v-17.961q0-14.336-0.614-29.409c-0.41-10.015-0.819-19.988-1.229-29.983s-1.024-20.009-1.843-30.003-2.048-20.214-3.482-30.597c-3.277-26.419-7.782-53.412-13.312-81.019-5.931-29.983-13.147-55.737-22.101-80.662l1.211 3.862c-8.246-23.642-18.208-44.049-30.224-63.027l0.733 1.239c-8.884-15.344-21.561-27.614-36.777-35.761l-0.497-0.243c-1.466-0.81-3.221-1.617-5.037-2.301l-0.288-0.095c-1.36-0.569-3.13-1.183-4.939-1.707l-0.386-0.096c-1.638-0.41-3.482-0.799-5.53-1.208-1.598-0.371-3.434-0.587-5.32-0.594h-0.005c-0.144-0.002-0.314-0.004-0.485-0.004-2.148 0-4.244 0.218-6.269 0.632l0.2-0.034c-2.361 0.479-4.419 1.101-6.391 1.889l0.247-0.087c-1.843 0.799-3.891 1.597-5.939 2.396s-4.096 1.597-6.554 2.417l-8.397 6.001c-7.849-12.667-16.365-23.665-25.889-33.697l0.084 0.089c-8.927-9.321-18.786-17.62-29.467-24.787l-0.638-0.403c-9.669-6.662-20.773-12.348-32.595-16.51l-0.992-0.304c-10.513-3.765-22.838-6.711-35.582-8.308l-0.872-0.089v-72.008h110.387v-35.983h-253.338v35.983h106.906v73.216c-14.038 0.747-27.166 3.763-39.316 8.688l0.814-0.292c-13.219 5.361-24.468 11.192-35.097 17.917l0.895-0.529c-11.119 7.155-20.734 15.272-29.191 24.471l-0.096 0.105c-8.74 9.559-16.658 20.162-23.465 31.506l-0.497 0.893-8.397-4.813c-1.687-1.613-3.746-2.851-6.034-3.574l-0.11-0.030c-2.253-0.799-4.506-1.597-6.554-2.396-1.637-0.663-3.621-1.282-5.664-1.749l-0.275-0.053c-1.901-0.378-4.087-0.595-6.323-0.595-0.081 0-0.162 0-0.243 0.001h0.012c-1.968 0.018-3.875 0.233-5.715 0.627l0.186-0.033c-2.048 0.41-3.686 0.799-5.325 1.208-2.19 0.556-4.033 1.173-5.814 1.906l0.285-0.104c-1.843 0.778-3.686 1.597-5.325 2.396-15.672 8.448-28.334 20.703-37.033 35.56l-0.24 0.444c-11.106 17.713-20.995 38.116-28.609 59.595l-0.678 2.193c-7.659 20.881-14.939 46.62-20.435 73.014l-0.659 3.786c-5.53 27.607-10.035 54.6-13.107 81.019q-2.458 15.585-3.686 30.597c-0.819 9.994-1.434 19.988-1.638 30.003s-0.819 19.968-1.229 29.983-0.614 19.804-0.614 29.409v18.002h81.51v36.004h451.174v-36.004h81.715zM348.57 364.073l3.482-4.792c-11.301 20.935-21.466 45.374-29.163 70.883l-0.738 2.845c-6.863 21.862-13.545 49.547-18.597 77.796l-0.654 4.411c-4.71 27.996-8.397 56.402-10.854 85.197s-3.891 56.402-4.71 82.801h-46.694c0-8.008 0-16.015 0.41-24.003s1.024-16.2 1.843-24.576 1.638-16.609 2.458-24.576l2.458-24.003c3.891-32.768 9.011-62.607 14.95-89.395 5.634-26.674 12.691-49.758 21.515-71.948l-1.035 2.951c6.88-18.079 14.525-33.502 23.442-48.062l-0.709 1.245c5.186-9.599 12.717-17.346 21.844-22.647l0.274-0.147 3.686-1.802c0.421-0.195 0.914-0.309 1.434-0.309s1.012 0.114 1.455 0.318l-0.022-0.009c0.906 0.335 1.954 0.555 3.045 0.613l0.027 0.001c0.98 0.058 1.846 0.504 2.455 1.184l0.003 0.003zM511.795 283.668c1.133-0.039 2.465-0.061 3.801-0.061 37.369 0 70.708 17.256 92.483 44.235l0.177 0.226c25.003 31.038 44.574 67.653 56.556 107.552l0.583 2.262c13.014 41.076 22.785 89.185 27.435 138.783l0.213 2.815q7.066 76.186 8.397 139.796h-379.29q1.229-54.006 7.782-129.024c4.565-52.797 13.916-101.38 27.75-148.036l-1.33 5.229c12.369-44.286 31.908-82.909 57.551-116.639l-0.616 0.845c21.847-29.287 56.399-48.048 95.333-48.048 1.117 0 2.23 0.015 3.34 0.046l-0.163-0.004zM775.782 586.076l2.458 24.003c0.614 7.987 1.434 16.2 2.253 24.576s1.434 16.589 1.843 24.576 0.614 15.995 0.614 24.003h-45.67c-1.638-36.004-3.891-69.632-7.168-100.803s-7.578-60.416-13.107-87.593c-6.321-30.616-13.177-55.977-21.329-80.748l1.463 5.136c-7.732-23.989-16.89-44.625-27.912-64.067l0.879 1.685 4.915 7.188 8.397-6.001c0.74-0.854 1.716-1.485 2.827-1.793l0.041-0.010c0.909-0.341 1.96-0.555 3.055-0.593h0.017c0.897 0.002 1.743 0.221 2.488 0.608l-0.030-0.014c0.614 0.389 1.843 1.004 3.482 1.802 9.432 5.49 17.015 13.224 22.17 22.494l0.153 0.301c8.208 13.315 15.853 28.739 22.073 44.87l0.66 1.947c7.517 18.967 14.564 42.037 19.872 65.765l0.608 3.232c5.939 26.788 10.854 56.586 14.95 89.395v0z" />
<glyph unicode="&#xe912;" glyph-name="plus" d="M696.32 427.52v40.96h-163.84v163.84h-40.96v-163.84h-163.84v-40.96h163.84v-163.84h40.96v163.84h163.84z" />
<glyph unicode="&#xe913;" glyph-name="minus" d="M675.84 468.48h-327.68v-40.96h327.68v40.96z" />
<glyph unicode="&#xe914;" glyph-name="heart" d="M725.48 912.404c-47.744 0-93.378-10.945-135.628-32.534-28.761-14.693-55.182-34.214-77.851-57.376-22.672 23.161-49.091 42.683-77.851 57.376-42.252 21.588-87.885 32.534-135.63 32.534-164.602 0-298.518-133.916-298.518-298.52 0-116.586 61.573-240.41 183.007-368.036 101.391-106.561 225.525-195.39 311.805-251.144l17.188-11.108 17.188 11.108c86.28 55.752 210.414 144.582 311.807 251.144 121.434 127.626 183.005 251.45 183.005 368.036 0 164.604-133.916 298.52-298.52 298.52zM795.107 289.51c-90.614-95.234-200.991-176.196-283.107-230.381-82.116 54.188-192.493 135.147-283.105 230.381-109.855 115.452-165.554 224.587-165.554 324.374 0 129.679 105.502 235.18 235.18 235.18 74.659 0 143.242-34.294 188.158-94.088l25.321-33.708 25.321 33.708c44.917 59.793 113.499 94.088 188.158 94.088 129.679 0 235.18-105.502 235.18-235.18 0-99.786-55.701-208.921-165.552-324.374z" />
<glyph unicode="&#xe915;" glyph-name="checked-box" d="M634.88 497.254v-184.32h-245.76v225.28h143.36v20.48h-163.84v-266.24h286.72v204.8h-20.48zM445.215 449.536l51.712-50.381 140.39 204.39 16.794-10.445-153.825-224.461-69.181 66.765 14.111 14.131z" />
<glyph unicode="&#xe916;" glyph-name="check-box" d="M368.64 591.36h286.72v-286.72h-286.72v286.72zM634.88 325.12v245.76h-245.76v-245.76h245.76z" />
<glyph unicode="&#xe917;" glyph-name="right" d="M644.485 572.498l-15.995 10.875-158.085-241.93-78.070 70.41-12.82-14.725 94.74-84.48z" />
<glyph unicode="&#xe918;" glyph-name="money" d="M632.422 345.6c-13.386 1.822-23.593 13.18-23.593 26.922 0 14.998 12.158 27.156 27.156 27.156s27.156-12.158 27.156-27.156c0-0.033 0-0.065 0-0.098v0.005c0-7.748 6.281-14.029 14.029-14.029s14.029 6.281 14.029 14.029v0c-0.618 26.469-19.491 48.357-44.487 53.594l-0.365 0.064v7.578c0 7.748-6.281 14.029-14.029 14.029s-14.029-6.281-14.029-14.029v-7.578c-25.36-5.301-44.233-27.189-44.85-53.592l-0.001-0.066c1.121-30.787 26.35-55.32 57.308-55.32 0.589 0 1.175 0.009 1.76 0.026l-0.086-0.002c13.331-1.897 23.47-13.235 23.47-26.941 0-15.021-12.177-27.197-27.197-27.197s-27.197 12.177-27.197 27.197c0 0.039 0 0.079 0 0.118v-0.006c0 0.043 0.001 0.093 0.001 0.143 0 7.704-6.228 13.953-13.924 13.988h-0.003c-7.8-0.012-14.12-6.331-14.131-14.13v-0.001c0.677-26.496 19.505-48.406 44.48-53.795l0.372-0.067v-6.144c0-7.748 6.281-14.029 14.029-14.029s14.029 6.281 14.029 14.029v6.144c25.346 5.456 44.175 27.366 44.85 53.79l0.001 0.072c-1.124 30.785-26.351 55.315-57.308 55.315-0.517 0-1.032-0.007-1.545-0.020l0.076 0.002zM785.613 429.773c-18.327 28.675-43.589 51.441-73.48 66.285l-1.067 0.479c-1.746 0.844-3.797 1.337-5.964 1.337-5.583 0-10.401-3.276-12.637-8.010l-0.036-0.085c-0.842-1.77-1.334-3.847-1.334-6.038 0-5.566 3.172-10.391 7.806-12.766l0.081-0.038c52.225-26.175 87.447-79.287 87.447-140.626 0-26.69-6.669-51.823-18.431-73.823l0.411 0.842c-1.058-1.927-1.68-4.222-1.68-6.662 0-5.33 2.968-9.966 7.341-12.347l0.074-0.037c1.882-1.102 4.132-1.778 6.535-1.843h0.019c5.395 0.020 10.078 3.052 12.456 7.501l0.037 0.076c13.416 25.030 21.298 54.759 21.298 86.328 0 36.891-10.763 71.268-29.319 100.163l0.444-0.738zM654.336 514.56h-1.024c-7.804 0-14.131-6.327-14.131-14.131s6.327-14.131 14.131-14.131h1.024c7.804 0 14.131 6.327 14.131 14.131s-6.327 14.131-14.131 14.131v0zM565.862 189.952c-52.225 26.175-87.447 79.287-87.447 140.626 0 26.69 6.669 51.823 18.431 73.823l-0.411-0.842c1.003 1.895 1.592 4.142 1.592 6.526 0 5.397-3.017 10.089-7.456 12.483l-0.075 0.037c-1.897 1.032-4.155 1.638-6.554 1.638-5.292 0-9.895-2.952-12.252-7.299l-0.036-0.073c-13.544-25.071-21.504-54.877-21.504-86.542 0-72.451 41.672-135.169 102.354-165.493l1.070-0.484c1.762-0.904 3.843-1.434 6.049-1.434 0.033 0 0.067 0 0.1 0h-0.005c7.702 0.274 13.841 6.584 13.841 14.327 0 5.491-3.087 10.26-7.62 12.669l-0.078 0.038zM611.328 174.592h-0.819c-7.804 0-14.131-6.327-14.131-14.131s6.327-14.131 14.131-14.131h0.819c7.804 0 14.131 6.327 14.131 14.131s-6.327 14.131-14.131 14.131v0zM695.91 562.483c-1.808 4.475-3.87 8.317-6.287 11.899l0.143-0.225h36.454c35.968 0 65.126 29.158 65.126 65.126s-29.158 65.126-65.126 65.126h-112.23c7.183 10.315 11.476 23.11 11.476 36.907 0 35.747-28.818 64.763-64.489 65.083h-343.070c-35.968 0-65.126-29.158-65.126-65.126s29.158-65.126 65.126-65.126h112.23c-7.055-10.34-11.266-23.11-11.266-36.864s4.21-26.524 11.413-37.092l-0.147 0.228h-36.454c-35.714-0.435-64.499-29.489-64.499-65.265 0-20.501 9.452-38.794 24.235-50.76l0.123-0.096c4.69-15.267 7.391-32.816 7.391-50.996 0-38.134-11.883-73.494-32.149-102.576l0.387 0.586c14.917-12.111 24.372-30.449 24.372-50.995s-9.455-38.884-24.251-50.9l-0.121-0.095c-0.001-0.104-0.001-0.226-0.001-0.349 0-35.683 28.851-64.627 64.499-64.778h164.878c43.249-47.128 105.122-76.569 173.871-76.595h0.004c131.808 1.796 237.968 109.066 237.968 241.131 0 109.433-72.893 201.842-172.774 231.32l-1.706 0.432zM726.221 676.147c20.359 0 36.864-16.505 36.864-36.864s-16.505-36.864-36.864-36.864h-343.040c-20.359 0-36.864 16.505-36.864 36.864s16.505 36.864 36.864 36.864h343.040zM217.907 704.41c-20.359 0-36.864 16.505-36.864 36.864s16.505 36.864 36.864 36.864h343.040c20.359 0 36.864-16.505 36.864-36.864s-16.505-36.864-36.864-36.864h-343.040zM293.683 574.157h342.835c5.816-0.059 11.301-1.413 16.201-3.786l-0.227 0.099c-6.554 0.41-13.312 0.819-20.070 0.819-65.938-0.069-125.533-27.173-168.307-70.821l-0.039-0.039h-170.394c-20.359 0-36.864 16.505-36.864 36.864s16.505 36.864 36.864 36.864v0zM293.683 472.166h146.432c-15.414-21.070-27.73-45.594-35.61-72.030l-0.434-1.698h-110.387c-20.359 0-36.864 16.505-36.864 36.864s16.505 36.864 36.864 36.864v0zM293.683 370.176h104.038c-2.086-11.664-3.279-25.091-3.279-38.797 0-0.329 0.001-0.657 0.002-0.985v0.051c0.025-12.011 0.843-23.806 2.404-35.366l-0.151 1.369h-103.014c-20.359 0-36.864 16.505-36.864 36.864s16.505 36.864 36.864 36.864v0zM293.683 194.458c-20.359 0-36.864 16.505-36.864 36.864s16.505 36.864 36.864 36.864h108.749c7.606-28.042 19.117-52.595 34.128-74.567l-0.541 0.839h-142.336zM632.422 117.862c-0.767-0.010-1.673-0.016-2.58-0.016-117.361 0-212.5 95.14-212.5 212.5s95.14 212.5 212.5 212.5c117.326 0 212.445-95.084 212.5-212.398v-0.005c0.001-0.288 0.002-0.628 0.002-0.969 0-116.277-93.78-210.651-209.831-211.612l-0.092-0.001z" />
<glyph unicode="&#xe919;" glyph-name="verified-avatar" d="M466.493 431.002c100.925 0 176.353 105.062 176.353 199.066 0 97.397-78.956 176.353-176.353 176.353s-176.353-78.956-176.353-176.353v0c0-94.003 75.407-199.066 176.353-199.066zM466.493 772.198c78.495-0.047 142.12-63.643 142.213-142.122v-0.009c0-76.39-62.116-165.069-142.213-165.069s-142.234 88.678-142.234 165.069c0.093 78.495 63.73 142.096 142.23 142.131h0.003zM716.8 396.8c-0.008 0-0.018 0-0.027 0-38.091 0-72.922-13.954-99.661-37.030l0.196 0.166c-44.465 8.991-95.577 14.137-147.892 14.137-1.028 0-2.055-0.002-3.081-0.006h0.158c-5.284 0.155-11.5 0.244-17.738 0.244-88.224 0-172.314-17.702-248.911-49.747l4.259 1.58c-30.016-13.685-50.504-43.43-50.504-77.959 0-0.024 0-0.049 0-0.073v0.004-135.782h381.153v34.202h-347.034v101.581c0 0.070-0.001 0.152-0.001 0.234 0 20.607 12.263 38.35 29.889 46.33l0.32 0.13c68.201 28.665 147.472 45.32 230.633 45.32 6.306 0 12.59-0.096 18.85-0.286l-0.917 0.022c0.758 0.003 1.655 0.004 2.553 0.004 42.831 0 84.844-3.502 125.768-10.235l-4.458 0.606c-16.926-24.331-27.042-54.504-27.042-87.040 0-84.831 68.769-153.6 153.6-153.6s153.6 68.769 153.6 153.6c0 84.831-68.769 153.6-153.6 153.6-0.040 0-0.081 0-0.121 0h0.006zM716.8 123.802c-65.916 0.035-119.337 53.478-119.337 119.398 0 65.942 53.456 119.398 119.398 119.398s119.398-53.456 119.398-119.398v0c-0.047-65.945-53.51-119.387-119.459-119.398h-0.001zM670.085 260.813l-24.146-24.166 64.369-64.307 93.327 93.389-24.125 23.962-69.202-69.018z" />
<glyph unicode="&#xe91a;" glyph-name="setup" d="M773.345 221.696l-122.88 115.712-21.217-19.866 122.88-115.917zM202.977 641.946c2.135-3.321 5.416-5.747 9.272-6.735l0.108-0.023 43.315-10.24 153.129-144.384 21.217 20.070-156.099 147.251c-1.885 1.773-4.242 3.065-6.863 3.667l-0.1 0.019-41.144 9.626-38.441 63.488 31.13 29.491 67.359-36.454 10.24-38.707c0.723-2.597 2.092-4.815 3.925-6.547l0.007-0.006 156.119-147.251 21.217 20.070-153.129 144.384-10.834 40.755c-1.079 3.856-3.647 6.979-7.030 8.769l-0.077 0.037-82.862 44.851c-2.106 1.109-4.602 1.761-7.251 1.761-4.157 0-7.939-1.604-10.761-4.227l0.010 0.009-47.329-44.646c-2.756-2.485-4.481-6.067-4.481-10.053 0-2.565 0.714-4.963 1.955-7.006l-0.034 0.060zM841.953 268.595l-0.389 0.41-2.232-2.253 2.048 2.458-141.189 133.12c-2.792 2.54-6.519 4.095-10.609 4.095s-7.817-1.555-10.621-4.106l0.013 0.011-5.919-5.53c-1.883-1.724-4.402-2.781-7.168-2.781s-5.285 1.056-7.176 2.788l0.008-0.007c-1.813 1.651-2.947 4.021-2.947 6.656s1.133 5.005 2.939 6.65l0.007 0.006 5.939 5.734c2.712 2.46 4.409 5.999 4.409 9.933s-1.696 7.472-4.397 9.923l-0.011 0.010-24.904 23.552 58.614 55.296c8.004-1.562 17.209-2.456 26.623-2.458h0.493c1.16-0.034 2.524-0.054 3.893-0.054 76.109 0 138.124 60.343 140.812 135.796l0.007 0.245c0 0.129 0.001 0.281 0.001 0.434 0 11.937-1.615 23.496-4.638 34.472l0.214-0.909c-1.016 3.757-3.493 6.809-6.767 8.566l-0.073 0.036c-2.172 1.334-4.803 2.124-7.618 2.124-1.333 0-2.624-0.177-3.852-0.509l0.103 0.024c-2.721-0.622-5.078-1.913-6.971-3.694l0.008 0.007-72.294-67.994-55.112 17.203-18.432 52.019 72.294 68.198c2.701 2.466 4.389 6.002 4.389 9.933s-1.688 7.467-4.378 9.923l-0.010 0.009c-1.901 1.77-4.271 3.061-6.902 3.667l-0.102 0.020c-10.954 2.952-23.531 4.648-36.504 4.648-65.355 0-120.657-43.045-139.102-102.33l-0.277-1.032c-2.81-10.031-4.425-21.55-4.425-33.446 0-9.112 0.948-18.003 2.75-26.579l-0.147 0.838-256.819-242.074c-8.005 1.563-17.21 2.457-26.623 2.458h-0.001c-72.266-4.343-129.229-64.011-129.229-136.983 0-75.782 61.434-137.216 137.216-137.216s137.216 61.434 137.216 137.216c0 0.062 0 0.124 0 0.187v-0.010c-0.048 8.944-0.993 17.638-2.749 26.035l0.148-0.844 58.614 55.091 24.904-23.347c2.779-2.57 6.51-4.146 10.609-4.146s7.829 1.576 10.619 4.155l-0.010-0.010 5.898 5.53c1.883 1.724 4.402 2.781 7.168 2.781s5.285-1.056 7.176-2.788l-0.008 0.007c1.827-1.666 2.97-4.056 2.97-6.713 0-0.016 0-0.032 0-0.048v0.002c0.001-0.036 0.001-0.079 0.001-0.122 0-2.44-1.004-4.645-2.621-6.225l-0.002-0.002-6.267-5.939c-2.694-2.509-4.373-6.076-4.373-10.035s1.679-7.526 4.365-10.028l0.008-0.008 141.189-133.12c18.364-17.007 43.029-27.44 70.131-27.44 26.782 0 51.185 10.188 69.544 26.9l-0.083-0.075c17.929 16.429 29.128 39.951 29.128 66.089 0 25.883-10.982 49.201-28.541 65.548l-0.054 0.050zM722.964 157.594l-130.949 123.494c4.734 6.008 7.593 13.685 7.593 22.031 0 1.185-0.058 2.356-0.17 3.511l0.012-0.147c-1.021 10.473-6.322 19.538-14.107 25.537l-0.086 0.063c-7.064 5.572-16.094 8.937-25.91 8.937-8.711 0-16.803-2.65-23.514-7.189l0.148 0.095-14.705 13.722 97.239 91.546 14.725-13.722c-4.728-6.049-7.581-13.762-7.581-22.142 0-1.145 0.053-2.278 0.158-3.396l-0.011 0.143c1.017-10.536 6.316-19.666 14.11-25.743l0.083-0.062c7.038-5.505 16.015-8.827 25.769-8.827 8.771 0 16.914 2.687 23.652 7.282l-0.145-0.093 130.847-123.494c0.73-0.649 1.399-1.318 2.027-2.024l0.021-0.024-97.034-91.341c-0.881 0.614-1.577 1.229-2.314 1.843zM677.908 535.245l-263.434-248.422c-2.706-2.473-4.397-6.019-4.397-9.959 0-1.192 0.155-2.347 0.445-3.447l-0.021 0.094c2.3-8.144 3.623-17.497 3.623-27.159 0-20.712-6.077-40.004-16.546-56.191l0.246 0.406c-21.513-32.444-57.875-53.544-99.165-53.544-52.574 0-97.159 34.209-112.708 81.582l-0.238 0.838c-2.025 7.857-3.188 16.877-3.188 26.169 0 52.399 36.976 96.162 86.259 106.62l0.713 0.127c8.609 2.218 18.492 3.492 28.672 3.492s20.063-1.273 29.498-3.67l-0.826 0.178c0.98-0.208 2.106-0.327 3.259-0.327 4.228 0 8.082 1.602 10.989 4.231l-0.014-0.013 268.452 253.133c2.688 2.468 4.366 5.999 4.366 9.922 0 1.205-0.158 2.373-0.456 3.485l0.021-0.094c-2.010 7.785-3.164 16.722-3.164 25.928 0 51.752 36.459 94.989 85.092 105.426l0.708 0.127c8.488 2.179 18.24 3.447 28.282 3.482h0.022l-57.344-54.067c-2.716-2.481-4.413-6.038-4.413-9.992 0-1.631 0.289-3.195 0.819-4.643l-0.030 0.094 23.654-66.765c1.609-4.325 5.073-7.628 9.399-8.983l0.104-0.028 71.025-22.323c1.405-0.462 3.023-0.728 4.702-0.728 4.119 0 7.864 1.602 10.646 4.217l-0.008-0.008 57.242 53.862c-2.066-60.055-51.247-107.955-111.615-107.955-0.836 0-1.669 0.009-2.5 0.027l0.124-0.002c-0.255-0.002-0.556-0.003-0.857-0.003-10.010 0-19.723 1.271-28.986 3.66l0.803-0.176c-1.005 0.219-2.159 0.345-3.343 0.345-4.237 0-8.099-1.608-11.007-4.248l0.014 0.012-4.997-4.71zM795.73 142.643c-7.193-2.578-15.491-4.076-24.137-4.096h-0.009c-6.902 0.063-13.551 1.031-19.871 2.79l0.537-0.128 85.217 80.282c1.795-5.459 2.83-11.742 2.83-18.267 0-9.679-2.278-18.826-6.326-26.934l0.158 0.35c-7.864-15.903-21.384-28.012-37.87-33.852l-0.469-0.145zM347.218 310.374v0c-2.844 4.104-7.529 6.758-12.834 6.758-0.017 0-0.034 0-0.051 0h-71.001c-0.018 0-0.039 0-0.060 0-5.296 0-9.971-2.655-12.768-6.707l-0.034-0.052-35.512-55.91c-1.347-2.052-2.149-4.568-2.149-7.27s0.802-5.218 2.18-7.321l-0.031 0.051 35.512-55.706c2.752-4.216 7.447-6.963 12.784-6.963 0.027 0 0.054 0 0.082 0h71c0.022 0 0.049 0 0.076 0 5.343 0 10.045 2.747 12.771 6.905l0.036 0.058 35.492 55.706c1.347 2.052 2.149 4.568 2.149 7.27s-0.802 5.218-2.18 7.321l0.031-0.051zM352.358 247.296l-26.501-41.779h-54.006l-26.522 41.779 26.522 41.574h54.026zM368.845 333.312l21.217-20.070 264.888 249.651-21.217 20.070z" />
<glyph unicode="&#xe91b;" glyph-name="shield" d="M766.853 597.094c-0.307 16.589-0.614 32.154-0.614 47.309 0 0.037 0 0.080 0 0.123 0 11.773-9.515 21.323-21.274 21.381h-0.006c-4.117-0.208-8.94-0.327-13.791-0.327-79.607 0-151.752 31.945-204.317 83.716l0.036-0.036c-3.834 3.708-9.064 5.993-14.828 5.993s-10.994-2.285-14.833-5.998l0.006 0.006c-52.525-51.735-124.668-83.68-204.271-83.68-4.846 0-9.665 0.118-14.454 0.352l0.675-0.026c-11.776-0.058-21.299-9.617-21.299-21.401 0-0.036 0-0.072 0-0.108v0.006c0-15.155-0.287-30.72-0.594-47.309-2.929-154.419-6.922-365.773 247.808-455.066 2.071-0.779 4.464-1.229 6.963-1.229s4.892 0.451 7.104 1.275l-0.141-0.046c254.669 89.293 250.675 300.646 247.828 455.066zM512.061 185.242c-218.46 80.077-215.040 255.795-212.214 411.034 0.164 9.216 0.348 18.227 0.451 27.238 81.416 0.808 155.532 31.41 212.112 81.403l-0.349-0.302c56.24-49.689 130.361-80.29 211.615-81.099l0.168-0.001c0.123-9.011 0.287-18.022 0.451-27.238 2.847-155.238 6.164-330.957-212.316-411.034zM585.339 522.752l-102.707-103.834-43.827 44.442c-3.876 3.801-9.19 6.147-15.053 6.147s-11.177-2.346-15.056-6.15l0.003 0.003c-3.854-3.928-6.233-9.315-6.233-15.258s2.379-11.33 6.236-15.261l-0.003 0.003 58.88-59.597c3.876-3.801 9.19-6.147 15.053-6.147s11.177 2.346 15.056 6.15l-0.003-0.003 117.76 119.194c3.857 3.889 6.24 9.244 6.24 15.155s-2.383 11.267-6.241 15.157l0.001-0.001c-3.839 3.914-9.183 6.341-15.094 6.341s-11.255-2.426-15.090-6.337l-0.003-0.003z" />
<glyph unicode="&#xe91c;" glyph-name="ring-2" d="M228.413 283.546v0c29.354-49.559 69.577-89.809 117.576-118.348l1.535-0.845c47.088-27.702 103.728-44.065 164.189-44.065 181.108 0 327.926 146.817 327.926 327.926 0 60.483-16.374 117.141-44.932 165.783l0.837-1.542c-29.29 49.608-69.529 89.873-117.577 118.352l-1.535 0.842c-47.088 27.702-103.728 44.065-164.189 44.065-181.108 0-327.926-146.817-327.926-327.926 0-60.483 16.374-117.141 44.932-165.783l-0.837 1.542zM599.921 642.765c7.024-3.113 12.723-6.056 18.24-9.277l-0.873 0.471c33.942-19.371 61.32-46.749 80.143-79.652l0.548-1.039c3.154-5.53 6.144-11.469 8.724-17.408v0c11.964-25.531 18.946-55.441 18.946-86.982 0-0.309-0.001-0.617-0.002-0.925v0.047c-0.175-117.915-95.728-213.455-213.633-213.606h-0.015c-0.207-0.001-0.453-0.001-0.699-0.001-31.612 0-61.603 6.942-88.531 19.385l1.309-0.543c-5.939 2.662-11.735 5.734-17.367 8.806-33.946 19.365-61.326 46.745-80.144 79.652l-0.547 1.039c-3.174 5.734-6.144 11.469-8.745 17.408v0c-11.964 25.579-18.945 55.54-18.945 87.132 0 0.256 0 0.511 0.001 0.767v-0.039c0.175 117.923 95.74 213.467 213.654 213.606h0.014c0.202 0.001 0.442 0.001 0.681 0.001 31.618 0 61.615-6.942 88.549-19.385l-1.31 0.543zM258.724 288.461l41.656 41.779c0.185-0.234 0.337-0.506 0.444-0.799l0.006-0.020c0.696-1.229 1.495-2.458 2.212-3.686 2.621-4.506 5.366-8.806 8.192-13.107 1.249-2.048 2.54-3.686 3.85-5.53q4.096-5.53 8.192-11.059c1.352-1.638 2.662-3.277 4.096-4.915 4.096-4.71 8.192-9.216 12.513-13.722l1.311-1.229c4.403-4.506 9.011-8.602 13.742-12.698 1.659-1.229 3.379-2.662 5.059-4.096 3.523-2.662 7.107-5.53 10.793-8.192 1.884-1.229 3.748-2.662 5.673-3.891 4.198-2.867 8.52-5.53 12.882-7.987 1.331-0.819 2.642-1.638 4.096-2.458 0.246-0.205 0.492-0.205 0.737-0.41l-41.677-41.574c-38.065 24.257-69.455 55.588-93.057 92.392l-0.721 1.202zM512 148.787c-48.702 0.010-94.699 11.584-135.398 32.123l1.725-0.789 43.397 43.418c26.927-11.272 58.216-17.82 91.035-17.82 133.343 0 241.439 108.096 241.439 241.439 0 0.296-0.001 0.592-0.002 0.888v-0.046c-0.002 32.573-6.55 63.615-18.401 91.885l0.583-1.568 43.418 43.418c19.783-38.895 31.373-84.818 31.373-133.448 0-165.293-133.903-299.311-299.152-299.499h-0.018zM765.256 607.539l-41.656-41.779c-0.143 0.205-0.287 0.614-0.43 0.819-0.696 1.229-1.495 2.458-2.232 3.686-2.621 4.506-5.345 8.806-8.192 13.107-1.249 2.048-2.54 3.686-3.85 5.53-2.662 3.891-5.448 7.373-8.315 11.059-1.331 1.638-2.642 3.277-4.096 4.915-4.096 4.71-8.192 9.216-12.513 13.722l-1.331 1.229c-4.403 4.506-8.991 8.602-13.742 12.698-1.659 1.434-3.379 2.662-5.059 4.096-3.523 2.867-7.127 5.53-10.813 8.192-1.864 1.229-3.727 2.662-5.632 3.891q-6.287 4.301-12.882 7.987l-3.994 2.458c-0.2 0.203-0.459 0.348-0.748 0.408l-0.010 0.002 41.677 41.779c38.041-24.378 69.433-55.764 93.092-92.59l0.726-1.208zM512 747.213c48.702-0.015 94.698-11.588 135.399-32.124l-1.726 0.789-43.418-43.418c-26.926 11.273-58.216 17.822-91.035 17.822-133.332 0-241.418-108.087-241.418-241.418 0-0.304 0.001-0.608 0.002-0.912v0.047c0-0.011 0-0.025 0-0.038 0-32.558 6.541-63.588 18.38-91.847l-0.583 1.569-43.397-43.418c-19.799 38.905-31.399 84.842-31.399 133.489 0 165.294 133.922 299.308 299.181 299.458h0.014z" />
<glyph unicode="&#xe91d;" glyph-name="test" d="M684.237 526.234l-15.565-17.203 70.656-65.126c16.020-15.045 26.001-36.359 26.010-60.005v-284.060h23.142v284.058c-0.042 30.38-12.931 57.741-33.525 76.947l-0.062 0.057zM592.691 796.16h-299.622c-31.816-0.151-57.549-25.978-57.549-57.814 0-0.051 0-0.101 0-0.152v0.008-580.403c0-0.043 0-0.093 0-0.144 0-31.837 25.733-57.663 57.535-57.814h287.963v20.685c0 0.045 0 0.098 0 0.151 0 54.716 16.52 105.574 44.843 147.858l-0.607-0.962c1.22 1.797 1.948 4.014 1.948 6.4 0 3.181-1.293 6.060-3.381 8.14v0l-80.691 81.306c-6.769 6.777-10.956 16.135-10.956 26.471 0 20.687 16.77 37.458 37.458 37.458 10.998 0 20.889-4.74 27.742-12.288l0.028-0.031 113.869-114.483 16.179 16.384-77.21 77.824v343.45c0 0.043 0 0.093 0 0.144 0 31.837-25.733 57.663-57.535 57.814h-0.014zM627.098 417.894l-13.312 13.517c-11.013 11.324-26.395 18.35-43.418 18.35-33.435 0-60.539-27.104-60.539-60.539 0-16.412 6.531-31.298 17.135-42.203l-0.014 0.014 73.933-74.752c-26.446-42.508-42.31-94.001-42.802-149.164l-0.001-0.135h-265.011c-19.14 0.116-34.611 15.659-34.611 34.815 0 0 0 0 0 0.001v0 34.816h288.154v23.347h-288.154v487.424h368.64v-285.491zM627.098 726.528h-368.64v11.674c0 0 0 0 0 0.001 0 19.156 15.471 34.699 34.6 34.815h299.633c19.022-0.093 34.407-15.535 34.407-34.57 0-0.087 0-0.173-0.001-0.259v0.013-11.674zM304.538 587.264h46.080c0.006 0 0.013 0 0.020 0 12.77 0 23.122 10.352 23.122 23.122 0 0.007 0 0.014 0 0.022v-0.001 46.49c0 0.043 0 0.093 0 0.144 0 12.702-10.297 22.999-22.999 22.999-0.051 0-0.101 0-0.152 0h-46.072c0 0-0.001 0-0.001 0-12.668 0-22.938-10.27-22.938-22.938 0-0.072 0-0.144 0.001-0.216v0.011-46.49c0-0.018 0-0.040 0-0.062 0-12.697 10.252-22.999 22.93-23.080h0.008zM304.538 656.896h46.080v-46.49h-46.080v46.49zM419.84 587.264h46.080c12.686 0.081 22.938 10.384 22.938 23.081 0 0.022 0 0.044 0 0.065v-0.003 46.49c0.001 0.061 0.001 0.133 0.001 0.205 0 12.668-10.27 22.938-22.938 22.938 0 0-0.001 0-0.001 0h-46.080c-0.006 0-0.013 0-0.020 0-12.77 0-23.122-10.352-23.122-23.122 0-0.007 0-0.014 0-0.022v0.001-46.49c0.058-12.758 10.385-23.085 23.137-23.142h0.006zM419.84 656.896h46.080v-46.49h-46.080v46.49zM534.938 587.264h46.080c0.006 0 0.013 0 0.020 0 12.77 0 23.122 10.352 23.122 23.122 0 0.007 0 0.014 0 0.022v-0.001 46.49c0 0.043 0 0.093 0 0.144 0 12.702-10.297 22.999-22.999 22.999-0.051 0-0.101 0-0.152 0h-46.072c0 0-0.001 0-0.001 0-12.668 0-22.938-10.27-22.938-22.938 0-0.072 0-0.144 0.001-0.216v0.011-46.49c0-0.018 0-0.040 0-0.062 0-12.697 10.252-22.999 22.93-23.080h0.008zM534.938 656.896h46.080v-46.49h-46.080v46.49zM304.538 471.142h46.080c12.784 0.011 23.143 10.377 23.143 23.163 0 0.065 0 0.13-0.001 0.194v-0.010 46.285c0 0.055 0.001 0.12 0.001 0.184 0 12.786-10.359 23.152-23.142 23.163h-46.081c-12.691-0.104-22.939-10.416-22.939-23.121 0-0.079 0-0.159 0.001-0.238v0.012-46.285c-0.001-0.067-0.001-0.147-0.001-0.226 0-12.705 10.248-23.017 22.929-23.121h0.010zM304.538 540.774h46.080v-46.285h-46.080v46.285zM304.538 355.226h46.080c0.043 0 0.093 0 0.144 0 12.702 0 22.999 10.297 22.999 22.999 0 0.051 0 0.101 0 0.152v-0.008 46.49c0 0.006 0 0.013 0 0.020 0 12.77-10.352 23.122-23.122 23.122-0.007 0-0.014 0-0.022 0h-46.079c-12.686-0.081-22.938-10.384-22.938-23.081 0-0.022 0-0.044 0-0.065v0.003-46.49c-0.001-0.061-0.001-0.133-0.001-0.205 0-12.668 10.27-22.938 22.938-22.938 0 0 0.001 0 0.001 0v0zM304.538 424.858h46.080v-46.49h-46.080v46.49zM419.84 471.142h46.080c12.691 0.104 22.939 10.416 22.939 23.121 0 0.079 0 0.159-0.001 0.238v-0.012 46.285c0.001 0.067 0.001 0.147 0.001 0.226 0 12.705-10.248 23.017-22.929 23.121h-46.090c-12.799-0.081-23.142-10.475-23.142-23.285 0-0.022 0-0.043 0-0.065v0.003-46.285c0-0.018 0-0.040 0-0.062 0-12.81 10.344-23.204 23.135-23.285h0.008zM419.84 540.774h46.080v-46.285h-46.080v46.285zM534.938 471.142h46.080c12.784 0.011 23.143 10.377 23.143 23.163 0 0.065 0 0.13-0.001 0.194v-0.010 46.285c0 0.055 0.001 0.12 0.001 0.184 0 12.786-10.359 23.152-23.142 23.163h-46.081c-12.691-0.104-22.939-10.416-22.939-23.121 0-0.079 0-0.159 0.001-0.238v0.012-46.285c-0.001-0.067-0.001-0.147-0.001-0.226 0-12.705 10.248-23.017 22.929-23.121h0.010zM534.938 540.774h46.080v-46.285h-46.080v46.285zM419.84 355.226h46.080c0 0 0.001 0 0.001 0 12.668 0 22.938 10.27 22.938 22.938 0 0.072 0 0.144-0.001 0.216v-0.011 46.49c0 0.018 0 0.040 0 0.062 0 12.697-10.252 22.999-22.93 23.080h-46.088c-12.758-0.058-23.085-10.385-23.142-23.137v-46.496c0-0.006 0-0.013 0-0.020 0-12.77 10.352-23.122 23.122-23.122 0.007 0 0.014 0 0.022 0h-0.001zM419.84 424.858h46.080v-46.49h-46.080v46.49zM304.538 239.104h46.080c0.006 0 0.013 0 0.020 0 12.77 0 23.122 10.352 23.122 23.122 0 0.007 0 0.014 0 0.022v-0.001 46.49c0 0.043 0 0.093 0 0.144 0 12.702-10.297 22.999-22.999 22.999-0.051 0-0.101 0-0.152 0h-46.072c0 0-0.001 0-0.001 0-12.668 0-22.938-10.27-22.938-22.938 0-0.072 0-0.144 0.001-0.216v0.011-46.49c0-0.018 0-0.040 0-0.062 0-12.697 10.252-22.999 22.93-23.080h0.008zM304.538 308.736h46.080v-46.49h-46.080v46.49zM419.84 239.104h46.080c12.686 0.081 22.938 10.384 22.938 23.081 0 0.022 0 0.044 0 0.065v-0.003 46.49c0.001 0.061 0.001 0.133 0.001 0.205 0 12.668-10.27 22.938-22.938 22.938 0 0-0.001 0-0.001 0h-46.080c-0.006 0-0.013 0-0.020 0-12.77 0-23.122-10.352-23.122-23.122 0-0.007 0-0.014 0-0.022v0.001-46.49c0.058-12.758 10.385-23.085 23.137-23.142h0.006zM419.84 308.736h46.080v-46.49h-46.080v46.49zM431.309 169.472h23.142v-23.142h-23.142v23.142z" />
<glyph unicode="&#xe91e;" glyph-name="globe" d="M743.69 679.629c-59.25 59.21-141.081 95.829-231.465 95.829-180.848 0-327.455-146.606-327.455-327.455s146.606-327.455 327.455-327.455c180.847 0 327.453 146.605 327.455 327.452v0c0.001 0.314 0.002 0.685 0.002 1.056 0 90.133-36.7 171.694-95.973 230.554l-0.019 0.019zM791.839 322.662h-48.824c11.005 34.127 17.761 73.456 18.649 114.231l0.008 0.457h56.566c-1.395-41.804-10.976-81.029-27.179-116.601l0.78 1.913zM205.742 437.35h56.566c0.907-41.235 7.663-80.563 19.468-117.638l-0.811 2.95h-48.824c-15.423 33.659-25.003 72.884-26.385 114.186l-0.013 0.502zM232.141 573.338h48.824c-10.994-34.125-17.75-73.453-18.649-114.224l-0.008-0.464h-56.566c1.395 41.804 10.976 81.029 27.179 116.601l-0.78-1.913zM648.499 458.65c-0.426 40.824-4.030 80.476-10.575 119.128l0.622-4.44h82.063c11.689-34.080 18.871-73.384 19.816-114.23l0.008-0.458h-91.935zM583.291 209.613h-60.682v91.955h90.337c-5.864-28.402-13.365-53.080-22.82-76.766l1.070 3.038c-2.54-6.554-5.181-12.493-7.905-18.227zM522.609 143.053v45.261h49.336c-10.333-20.706-27.608-36.66-48.713-45.043l-0.623-0.218zM452.055 188.314h49.316v-45.261c-21.72 8.605-38.988 24.558-49.075 44.728l-0.241 0.533zM432.783 227.84c-8.359 20.627-15.859 45.303-21.227 70.765l-0.523 2.963h90.337v-91.955h-60.682c-2.724 5.734-5.366 11.674-7.905 18.227zM440.689 686.592h60.682v-92.16h-90.337c5.893 28.509 13.394 53.255 22.832 77.022l-1.082-3.089c2.54 6.349 5.181 12.493 7.905 18.227zM501.371 753.152v-45.466h-49.316c10.388 20.713 27.629 36.707 48.69 45.241l0.626 0.224zM571.945 707.686h-49.336v45.466c21.694-8.756 38.942-24.75 49.092-44.929l0.245-0.537zM591.196 668.365c8.381-20.7 15.883-45.448 21.233-70.987l0.516-2.946h-90.337v92.16h60.682c2.724-5.734 5.366-11.878 7.905-18.227zM501.371 573.338v-114.688h-104.653c0.417 40.815 4.125 80.454 10.871 119.049l-0.631-4.361h94.413zM501.371 437.35v-114.688h-94.413c-6.115 34.234-9.823 73.873-10.237 114.301l-0.003 0.387h104.653zM522.609 322.662v114.688h104.673c-0.428-40.824-4.136-80.463-10.872-119.061l0.632 4.373h-94.413zM522.609 458.65v114.688h94.413c6.104-34.225 9.812-73.864 10.237-114.29l0.003-0.398h-104.673zM634.614 594.432c-6.228 31.362-14.405 58.736-24.817 84.98l1.142-3.265q-2.048 5.222-4.342 10.445h48.763c23.652-26.095 43.007-56.627 56.608-90.11l0.736-2.050h-78.111zM596.357 707.686c-7.182 13.703-15.236 25.523-24.466 36.306l0.218-0.261c23.475-8.93 43.706-21.121 61.319-36.271l-0.269 0.226h-36.864zM427.622 707.686h-36.864c17.346 14.92 37.577 27.11 59.653 35.574l1.398 0.471c-8.98-10.522-17.014-22.341-23.681-34.992l-0.506-1.052zM417.382 686.592q-2.212-5.222-4.342-10.445c-9.276-22.989-17.447-50.364-23.137-78.637l-0.517-3.078h-78.090c14.33 35.535 33.686 66.068 57.574 92.417l-0.23-0.257h48.742zM385.434 573.338c-5.913-34.203-9.516-73.855-9.95-114.267l-0.004-0.421h-91.935c0.961 41.306 8.15 80.609 20.661 117.454l-0.816-2.766h82.043zM283.546 437.35h91.935c0.438-40.833 4.040-80.485 10.575-119.139l-0.622 4.451h-82.043c-11.677 34.077-18.865 73.377-19.836 114.217l-0.009 0.471zM389.386 301.568c6.246-31.382 14.415-58.755 24.803-85.009l-1.149 3.293c1.413-3.482 2.867-6.963 4.342-10.24h-48.742c-23.709 26.004-43.071 56.478-56.619 89.929l-0.725 2.026h78.131zM427.622 188.314c7.191-13.702 15.244-25.521 24.469-36.309l-0.221 0.264c-23.474 8.935-43.705 21.125-61.321 36.271l0.27-0.227h36.864zM596.357 188.314h36.864c-17.346-14.92-37.577-27.11-59.653-35.574l-1.398-0.471c8.989 10.52 17.024 22.34 23.684 34.996l0.503 1.049zM606.597 209.613c1.475 3.277 2.929 6.758 4.342 10.24 9.233 22.949 17.408 50.321 23.143 78.578l0.532 3.137h78.090c-14.28-35.475-33.642-65.948-57.56-92.196l0.216 0.241h-48.763zM638.546 322.662c5.924 34.212 9.527 73.864 9.95 114.279l0.003 0.409h91.935c-0.973-41.308-8.154-80.61-20.641-117.463l0.816 2.775h-82.063zM761.672 458.65c-0.885 41.229-7.643 80.559-19.467 117.627l0.809-2.939h48.824c15.423-33.659 25.003-72.884 26.385-114.186l0.013-0.502h-56.566zM781.292 594.432h-45.65c-12.215 32.147-27.729 59.945-46.642 85.037l0.624-0.864q-3.072 3.994-6.144 7.987h21.033c8.397-6.963 16.384-14.131 24.228-21.914 20.31-20.267 37.776-43.373 51.756-68.675l0.796-1.571zM674.796 707.686h-10.24c-5.079 5.325-10.24 10.035-15.606 14.746q13.251-6.758 25.866-14.746zM359.404 707.686h-10.24q12.636 7.987 25.907 14.746c-5.304-4.71-10.527-9.421-15.585-14.746zM295.219 664.678c7.741 7.782 15.852 14.95 24.248 21.914h21.033q-3.154-4.096-6.144-7.987c-18.296-24.228-33.817-52.026-45.255-81.846l-0.784-2.327h-45.629c14.793 26.873 32.279 49.979 52.605 70.238l0.009 0.009zM242.606 301.568h45.65c12.222-32.147 27.743-59.945 46.662-85.036l-0.623 0.863c2.048-2.662 4.096-5.325 6.144-7.782h-20.951c-8.84 7.104-16.746 14.205-24.248 21.708l-0.001 0.001c-20.31 20.267-37.776 43.373-51.756 68.675l-0.796 1.571zM349.102 188.314h10.24c5.079-5.12 10.24-10.035 15.606-14.541-10.242 5.072-18.676 9.907-26.806 15.173l1.042-0.632zM664.494 188.314h10.24c-7.136-4.645-15.625-9.482-24.391-13.848l-1.537-0.693c5.407 4.506 10.65 9.421 15.688 14.541zM728.678 231.322c-7.498-7.506-15.396-14.606-23.663-21.268l-0.565-0.44h-21.033c2.048 2.458 4.096 5.12 6.144 7.782 18.287 24.229 33.807 52.026 45.253 81.842l0.786 2.33h45.629c-14.775-26.872-32.241-49.979-52.546-70.241l-0.006-0.006z" />
<glyph unicode="&#xe91f;" glyph-name="partnership" d="M719.565 368.333l-0.117 0.237c3.378-6.278 5.295-13.458 5.295-21.087 0-14.188-6.631-26.828-17.056-35.061l0.080 0.065c-8.793-7.35-20.117-11.773-32.474-11.773-0.657 0-1.312 0.013-1.869 0.034l-0.125-0.309c-4.895-10.868-13.638-19.63-24.8-24.676l0.351 0.159c-8.195-4.106-17.446-6.417-27.236-6.417-3.751 0-7.423 0.339-10.614 0.932l-0.153-0.313c-6.559-12.295-17.403-21.958-30.936-27.13l0.328 0.115c-5.526-2.189-11.549-3.392-17.854-3.392-5.893 0-11.541 1.051-16.43 2.868l0.159 0.108c-8.649-6.195-19.247-9.841-30.697-9.841-1.181 0-2.353 0.039-3.356 0.107l-0.372 0.021c-19.396 1.362-37.494 7.428-52.651 16.773-13.312 8.397-80.159 56.73-135.762 101.376-9.257 7.373-23.040 21.299-36.352 34.611-9.892 9.83-18.842 19.046-23.47 22.733l-0.028 0.022c-3.212 2.567-5.27 6.518-5.27 10.949 0 3.578 1.341 6.842 3.536 9.304l0.010 0.011c2.826 3.079 6.884 5.008 11.393 5.008 3.664 0 7.031-1.275 9.65-3.381 5.079-4.096 14.95-13.926 25.764-24.781 12.186-12.288 25.989-26.010 33.976-32.563 56.771-45.67 122.511-92.774 132.977-99.328l-0.4 0.224c10.899-6.578 23.322-10.888 36.997-12.307 13.967 0 15.258 3.482 15.831 4.915l0.033 0.098c1.709 4.472 5.593 7.868 10.453 8.913l-0.105-0.023c1.219 0.319 2.499 0.489 3.819 0.489 3.812 0 7.292-1.419 9.926-3.743l-0.024 0.020c2.853-2.411 6.541-3.864 10.569-3.864 2.387 0 4.655 0.511 6.597 1.387l0.188 0.062c9.181 3.454 16.010 11.71 17.445 21.851l0.007 0.072c0.685 5.51 4.405 10.077 9.536 12.011l-0.109-0.035c1.68 0.612 3.494 0.946 5.386 0.946 3.915 0 7.495-1.43 10.227-3.779l-0.115 0.060c3.363-1.909 7.252-2.998 11.396-2.998 4.43 0 8.568 1.246 11.984 3.348l0.12 0.039c6.565 2.441 11.257 8.733 11.328 16.14l0.006-0.065c-0.062 0.532-0.094 1.074-0.094 1.623 0 5.233 2.912 9.786 7.277 12.163l-0.064-0.037c2.271 1.406 4.949 2.218 7.816 2.218 3.133 0 6.039-0.969 8.386-2.591l-0.111 0.042c2.052-0.875 4.311-1.358 6.683-1.358 4.611 0 8.795 1.83 11.861 4.798l0.045 0.031c4.035 2.984 6.652 7.777 6.652 13.182 0 3.056-0.837 5.917-2.252 8.291-11.182 22.323-60.989 61.030-104.878 95.232-24.289 18.637-47.35 36.659-64.43 52.019-4.301-1.638-7.639-3.072-10.445-4.301l0.493 0.211c-7.027-3.341-14.609-5.704-23.021-6.969l-0.164-0.248c-13.829-19.8-36.788-32.753-62.772-32.753-8.872 0-17.392 1.51-24.78 4.124l-0.255 0.060c-12.314 3.407-21.998 13.145-25.386 25.745-7.209 29.082 20.48 68.813 40.96 88.474 53.699 51.61 91.259 70.861 159.744 41.574 58.778-25.395 117.678-45.056 118.272-45.261l0.101-0.029c5.718-1.884 9.845-7.27 9.845-13.619 0-1.639-0.275-3.214-0.751-4.58l-0.036-0.104c-2.212-5.67-7.728-9.688-14.181-9.688-1.72 0-3.374 0.286-4.809 0.78-0.594 0.205-60.682 20.48-120.648 46.285-52.879 22.528-77.906 10.854-126.423-35.635-20.398-19.661-36.147-48.947-33.014-61.44l0.010-0.048c0.68-2.774 3.012-4.9 5.929-5.277l-0.321 0.105c5.073-1.901 10.567-2.941 16.304-2.941 18.123 0 33.822 10.374 41.606 25.773l0.032 0.049c2.423 3.522 6.349 5.929 10.904 6.299l0.131 0.006c7.239 0.401 14.072 2.323 19.899 5.319 4.895 2.048 11.121 4.71 21.176 8.192l-0.109-0.034c1.622 0.574 3.367 0.886 5.185 0.886 4.077 0 7.788-1.57 10.55-4.129 16.343-15.77 41.964-35.635 69.079-56.73 48.62-37.683 98.939-76.8 113.009-104.858zM452.26 605.901h-134.39c-7.918 0-14.336-6.418-14.336-14.336s6.418-14.336 14.336-14.336v0h134.39c7.918 0 14.336 6.418 14.336 14.336s-6.418 14.336-14.336 14.336v0zM763.331 398.848c-2.847 3.835-7.361 6.292-12.45 6.292-3.070 0-5.932-0.895-8.338-2.438l0.062 0.037-43.663-28.262c-3.998-2.499-6.618-6.877-6.618-11.866 0-2.995 0.944-5.77 2.551-8.043l-0.029 0.044c2.799-3.864 7.298-6.349 12.376-6.349 0.019 0 0.039 0 0.058 0h-0.003c3.083 0.011 5.951 0.926 8.354 2.494l-0.059-0.036 43.684 28.058c3.992 2.557 6.6 6.969 6.6 11.991 0 3.022-0.945 5.824-2.555 8.125l0.030-0.046zM670.618 330.24c-10.691 8.192-58.511 55.091-88.064 84.787-2.769 2.738-6.579 4.43-10.783 4.43-3.995 0-7.634-1.527-10.364-4.030l0.011 0.010c-2.828-2.559-4.598-6.243-4.598-10.34 0-3.889 1.594-7.407 4.165-9.933l0.002-0.002c7.66-7.578 75.366-75.366 91.116-87.45 2.54-1.918 5.75-3.072 9.23-3.072 0.002 0 0.005 0 0.007 0v0c4.704 0.068 8.899 2.19 11.738 5.508l0.018 0.022c2.003 2.385 3.22 5.489 3.22 8.876 0 4.584-2.228 8.647-5.66 11.167l-0.039 0.027zM610.939 301.568c-17.879 13.722-62.833 59.597-72.991 70.246-2.811 2.822-6.701 4.568-10.998 4.568-3.874 0-7.417-1.419-10.137-3.766l0.020 0.017c-2.96-2.579-4.821-6.355-4.821-10.565 0-3.774 1.494-7.198 3.923-9.714l-0.004 0.004c0.553-0.614 54.19-56.115 76.349-73.114 2.492-2.041 5.71-3.277 9.218-3.277 0.035 0 0.071 0 0.106 0h-0.005c4.68 0.064 8.851 2.189 11.655 5.507l0.019 0.023c2.025 2.397 3.256 5.522 3.256 8.935 0 4.543-2.182 8.577-5.555 11.11l-0.036 0.026zM551.547 272.691c-21.279 17.203-64.86 61.85-73.38 70.451-2.787 2.866-6.679 4.644-10.987 4.644-3.89 0-7.442-1.45-10.144-3.839l0.016 0.014c-2.907-2.572-4.73-6.311-4.73-10.477 0-3.818 1.532-7.279 4.015-9.8l-0.002 0.002c12.288-12.698 53.944-55.091 75.96-72.909 2.597-2.136 5.945-3.443 9.597-3.482h0.008c4.536 0.030 8.608 1.994 11.437 5.107l0.011 0.013c2.169 2.458 3.494 5.706 3.494 9.264 0 4.452-2.074 8.419-5.308 10.989l-0.029 0.022zM328.172 630.477c-25.58 23.347-127.939 30.925-158.7 32.563-0.337 0.026-0.729 0.041-1.125 0.041-3.838 0-7.347-1.412-10.035-3.744l0.019 0.016c-2.834-2.606-4.624-6.31-4.69-10.433v-258.265c0.228-7.966 6.74-14.337 14.74-14.337 0.067 0 0.133 0 0.2 0.001h89.467c0.017 0 0.038 0 0.059 0 6.5 0 12.032 4.142 14.101 9.931l0.033 0.105c2.171 6.349 53.637 158.106 60.416 232.653 0.040 0.39 0.063 0.843 0.063 1.302 0 4.042-1.769 7.671-4.574 10.155l-0.014 0.012zM247.276 404.992h-63.775v228.557c42.967-1.876 83.515-9.229 121.926-21.388l-3.326 0.908c-15.23-80.903-34.217-150.76-58.017-218.347l3.151 10.27zM855.532 634.573c-4.982 0.185-10.834 0.29-16.71 0.29-60.461 0-118.318-11.149-171.628-31.503l3.301 1.107c-3.831-1.713-6.722-4.945-7.94-8.91l-0.027-0.102c-0.378-1.193-0.596-2.565-0.596-3.988 0-2.784 0.834-5.373 2.266-7.531l-0.031 0.050c18.432-28.672 76.247-186.982 87.368-225.69 1.857-6.205 7.515-10.65 14.212-10.65 0.044 0 0.087 0 0.131 0.001h89.593c0.056-0.001 0.123-0.001 0.19-0.001 8 0 14.512 6.371 14.739 14.316v258.274c-0.228 7.966-6.74 14.337-14.74 14.337-0.067 0-0.133 0-0.2-0.001h0.010zM840.602 376.32h-63.488c-14.152 44.442-55.972 159.744-79.299 207.462 42.649 13.56 91.728 21.545 142.618 21.913l0.189 0.001v-229.376z" />
<glyph unicode="&#xe920;" glyph-name="equlizer" d="M10.24 949.76h1003.52v-1003.52h-1003.52v1003.52zM952.32 7.68v880.23h-880.64v-880.23h880.64zM245.35 356.25c-11.209 2.89-21.025 7.614-29.635 13.893l0.246-0.171c-9.177 6.574-16.964 14.368-23.327 23.252l-0.204 0.3c-6.124 8.5-11.402 18.232-15.372 28.612l-0.296 0.88c-3.723 9.689-5.879 20.897-5.879 32.609 0 0.2 0.001 0.4 0.002 0.599v-0.031c0 0.087 0 0.19 0 0.292 0 12.23 2.154 23.958 6.103 34.823l-0.225-0.709c3.89 11.2 9.201 20.904 15.846 29.528l-0.179-0.241c6.724 8.754 14.483 16.259 23.204 22.51l0.328 0.223c8.388 6.020 18.189 10.733 28.757 13.577l0.632 0.145v168.55h60.764v-168.55c11.206-3.003 21.012-7.714 29.686-13.909l-0.277 0.188c9.028-6.49 16.778-13.993 23.321-22.476l0.19-0.257c6.456-8.387 11.772-18.089 15.463-28.557l0.224-0.73c3.724-10.181 5.878-21.936 5.878-34.194 0-0.075 0-0.149 0-0.224v0.012c0.001-0.145 0.001-0.317 0.001-0.489 0-11.74-2.156-22.975-6.094-33.333l0.215 0.644c-4.293-11.26-9.576-20.99-15.954-29.881l0.266 0.39c-6.577-9.171-14.355-16.962-23.214-23.348l-0.297-0.204c-8.374-6.095-18.194-10.818-28.804-13.587l-0.605-0.134v-164.659h-60.764v164.659zM276.726 503.296c-0.126 0.001-0.275 0.002-0.425 0.002-6.597 0-12.858-1.434-18.49-4.007l0.278 0.114c-5.679-2.507-10.54-5.814-14.697-9.843l0.013 0.012c-4.064-4.133-7.373-9.024-9.693-14.44l-0.117-0.306c-2.472-5.378-3.913-11.669-3.913-18.296 0-0.12 0-0.24 0.001-0.36v0.018c-0.003-0.178-0.005-0.389-0.005-0.6 0-6.191 1.446-12.044 4.018-17.24l-0.102 0.227c2.842-5.536 6.105-10.31 9.881-14.623l-0.071 0.082c3.766-4.558 8.756-7.98 14.467-9.772l0.217-0.059c5.463-1.947 11.764-3.073 18.328-3.073 0.108 0 0.217 0 0.325 0.001h-0.017c5.999 0.092 11.709 1.211 17.001 3.187l-0.351-0.115c5.933 1.854 10.929 5.275 14.664 9.779l0.041 0.051c3.682 4.235 6.937 9.007 9.599 14.137l0.191 0.404c2.483 4.999 3.935 10.887 3.935 17.114 0 0.176-0.001 0.351-0.003 0.526v-0.027c0.002 0.149 0.003 0.326 0.003 0.503 0 6.295-1.452 12.251-4.040 17.552l0.104-0.237c-2.853 5.534-6.108 10.306-9.865 14.63l0.076-0.089c-7.752 8.724-18.861 14.318-31.281 14.744l-0.074 0.002zM482.509 481.792c-11.55 3.034-21.674 7.745-30.704 13.937l0.332-0.215c-9.683 6.395-17.836 14.222-24.39 23.281l-0.186 0.271c-6.184 8.437-11.473 18.106-15.406 28.443l-0.282 0.844c-3.723 9.776-5.879 21.082-5.879 32.891 0 0.173 0 0.346 0.001 0.518v-0.027c0 0.016 0 0.035 0 0.054 0 12.242 2.154 23.981 6.103 34.859l-0.225-0.711c7.366 21.836 21.471 39.772 39.805 51.787l0.377 0.232c8.697 5.977 18.822 10.688 29.692 13.568l0.68 0.153v43.213h58.798v-43.213c11.557-3.042 21.687-7.753 30.728-13.939l-0.336 0.217c18.71-12.248 32.816-30.183 39.977-51.321l0.205-0.698c3.724-10.167 5.878-21.906 5.878-34.148 0-0.019 0-0.038 0-0.056v0.003c0.001-0.146 0.001-0.319 0.001-0.492 0-11.809-2.156-23.115-6.096-33.544l0.217 0.654c-4.237-11.181-9.523-20.847-15.934-29.641l0.247 0.355c-6.751-9.321-14.902-17.146-24.231-23.337l-0.345-0.215c-8.705-5.969-18.836-10.679-29.708-13.567l-0.684-0.155v-290.202h-58.798v290.202zM511.918 628.838c-0.062 0-0.134 0.001-0.207 0.001-6.329 0-12.322-1.435-17.672-3.998l0.246 0.106c-5.595-2.878-10.42-6.147-14.804-9.914l0.099 0.083c-4.599-3.972-8.26-8.9-10.692-14.485l-0.101-0.26c-2.472-5.423-3.912-11.762-3.912-18.438 0-0.070 0-0.14 0-0.21v0.011c-0.005-0.219-0.007-0.478-0.007-0.737 0-6.145 1.447-11.951 4.019-17.098l-0.1 0.222c2.875-5.698 6.483-10.568 10.779-14.732l0.014-0.013c4.076-4.144 8.967-7.472 14.416-9.725l0.289-0.106c5.261-1.817 11.325-2.867 17.633-2.867s12.372 1.049 18.025 2.983l-0.392-0.116c5.731 2.376 10.62 5.701 14.701 9.826l0.004 0.004c4.297 4.182 7.897 9.051 10.63 14.435l0.143 0.31c2.482 5.159 3.932 11.216 3.932 17.613s-1.45 12.454-4.040 17.862l0.108-0.249c-2.933 5.672-6.526 10.534-10.769 14.742l-0.004 0.004c-4.221 4.237-9.063 7.852-14.38 10.696l-0.325 0.159c-5.104 2.456-11.097 3.892-17.426 3.892-0.073 0-0.146 0-0.219-0.001h0.011zM747.11 168.243c-0.364-0.005-0.794-0.007-1.225-0.007-28.296 0-53.882 11.6-72.264 30.303l-0.014 0.015c-9.39 9.304-16.996 20.39-22.272 32.71l-0.256 0.672c-4.972 11.877-7.86 25.677-7.86 40.153 0 0.644 0.006 1.286 0.017 1.927l-0.001-0.096c-0.001 0.185-0.002 0.403-0.002 0.621 0 11.764 2.156 23.025 6.095 33.408l-0.216-0.648c4.282 11.259 9.567 20.99 15.951 29.877l-0.263-0.386c6.439 8.933 14.24 16.422 23.182 22.324l0.33 0.204c8.397 5.351 18.079 10.304 28.229 14.332l1.181 0.413v350.822h60.764v-350.822c11.332-4.467 21.006-9.419 30.12-15.177l-0.731 0.431c9.264-6.124 17.069-13.609 23.353-22.27l0.178-0.258c6.105-8.501 11.382-18.231 15.367-28.602l0.3-0.889c3.724-9.707 5.88-20.935 5.88-32.667 0-0.251-0.001-0.503-0.003-0.754v0.038c0.009-0.515 0.014-1.122 0.014-1.73 0-14.508-2.88-28.344-8.098-40.966l0.261 0.712c-5.55-12.986-13.153-24.069-22.522-33.377l-0.006-0.005c-9.267-9.418-20.338-17.028-32.657-22.277l-0.664-0.251c-11.81-4.938-25.532-7.806-39.924-7.806-0.782 0-1.562 0.008-2.339 0.025l0.116-0.002zM747.11 319.181c-6.091-0.182-11.792-1.674-16.887-4.202l0.237 0.106c-5.709-2.354-10.592-5.607-14.713-9.634l0.009 0.009c-3.951-4.191-7.238-9.064-9.656-14.414l-0.134-0.331c-2.376-4.914-3.814-10.672-3.932-16.753l-0.001-0.040c-0.001-0.106-0.001-0.231-0.001-0.356 0-6.554 1.45-12.77 4.046-18.344l-0.112 0.268c2.438-5.718 5.739-10.608 9.798-14.754l-0.008 0.008c4.151-4.016 9.019-7.323 14.388-9.705l0.317-0.125c4.87-2.37 10.582-3.795 16.618-3.891h0.033c0.119-0.001 0.259-0.002 0.399-0.002 6.605 0 12.876 1.434 18.517 4.007l-0.279-0.114c5.679 2.507 10.54 5.814 14.697 9.843l-0.013-0.012c4.050 4.142 7.356 9.030 9.691 14.436l0.119 0.309c2.471 5.336 3.913 11.581 3.913 18.163 0 0.095 0 0.189-0.001 0.284v-0.015c-0.131 6.121-1.56 11.876-4.020 17.046l0.108-0.253c-2.567 5.679-5.859 10.552-9.835 14.772l0.025-0.027c-4.106 4.019-8.982 7.272-14.383 9.515l-0.302 0.111c-5.468 2.573-11.875 4.081-18.632 4.096h-0.005z" />
<glyph unicode="&#xe921;" glyph-name="cloud-2" d="M1024 566.374c-0.064 37.341-7.408 72.949-20.686 105.505l0.677-1.877c-13.103 33.646-31.743 62.45-55.070 86.715l0.081-0.085c-23.049 23.608-50.161 43.123-80.226 57.437l-1.694 0.726c-26.28 12.793-57.172 20.272-89.812 20.272-3.232 0-6.446-0.073-9.642-0.218l0.454 0.016c-3.162 0.549-6.803 0.863-10.517 0.863-5.501 0-10.841-0.688-15.939-1.983l0.446 0.096c-7.121-1.901-15.626-3.42-24.331-4.25l-0.655-0.050c-9.617-0.787-18.456-3.424-26.393-7.554l0.384 0.182c-7.204-3.618-15.566-6.523-24.34-8.288l-0.645-0.108c-13.049 12.373-27.073 24.123-41.793 34.984l-1.215 0.856c-14.089 10.613-30.29 19.536-47.69 25.991l-1.319 0.428c-17.347 6.349-35 12.083-53.002 16.998-12.812 3.678-27.528 5.793-42.737 5.793-4.312 0-8.584-0.17-12.81-0.504l0.558 0.035c-3.293 0.178-7.148 0.28-11.026 0.28-26.536 0-51.962-4.757-75.469-13.465l1.504 0.488c-28.631-10.352-53.421-23.564-75.935-39.744l0.917 0.627c-23.521-17.093-43.651-36.975-60.466-59.478l-0.524-0.733c-17.055-22.524-31.547-48.354-42.269-76.063l-0.739-2.171c-0.298 0.001-0.65 0.002-1.003 0.002-27.983 0-54.791-5.031-79.568-14.238l1.58 0.514c-25.332-9.602-46.78-24.432-63.878-43.281l-0.122-0.136c-17.554-19.181-32.036-41.544-42.434-66.060l-0.574-1.524c-10.122-23.777-16.005-51.436-16.005-80.469 0-0.726 0.004-1.452 0.011-2.177l-0.001 0.111c-0.002-0.318-0.003-0.695-0.003-1.072 0-28.51 5.505-55.735 15.511-80.668l-0.517 1.459c9.943-25.501 24.189-47.306 42.040-65.573l-0.036 0.037c17.727-18.058 38.577-32.974 61.689-43.886l1.308-0.555c19.575-9.475 42.573-15.013 66.864-15.013 3.215 0 6.406 0.097 9.573 0.288l-0.435-0.021 222.003-2.253v65.536l-222.003-2.048c-19.417 1.444-37.439 5.602-54.291 12.111l1.289-0.438c-17.219 6.683-31.686 17.2-42.875 30.557l-0.133 0.163c-11.537 13.337-21.27 28.677-28.549 45.334l-0.45 1.156c-6.966 16.119-11.017 34.888-11.017 54.603 0 0.82 0.007 1.638 0.021 2.454l-0.002-0.123c0.021 19.531 4.063 38.113 11.345 54.969l-0.347-0.902c7.22 17.571 17.007 32.641 29.077 45.55l-0.078-0.084c12.007 12.536 26.267 22.798 42.147 30.157l0.861 0.358c13.041 6.292 28.357 9.97 44.533 9.97 2.981 0 5.933-0.125 8.85-0.37l-0.381 0.026c0.812 0.857 1.958 1.391 3.229 1.391 0.639 0 1.247-0.135 1.796-0.378l-0.028 0.011c0.885-0.388 1.916-0.614 3-0.614s2.115 0.226 3.050 0.633l-0.049-0.019c0.523 0.231 1.132 0.365 1.772 0.365 1.276 0 2.427-0.533 3.244-1.387l0.002-0.002c0.799-0.685 1.846-1.102 2.99-1.102s2.191 0.417 2.996 1.107l-0.006-0.005 26.010-6.349 8.008 29.491c7.465 26.163 18.045 49.029 31.583 69.789l-0.597-0.976c13.384 21.040 29.664 38.865 48.536 53.51l0.472 0.353c18.14 13.786 38.936 25.514 61.246 34.215l1.75 0.601c18.211 7.557 39.362 11.946 61.539 11.946 3.33 0 6.637-0.099 9.918-0.294l-0.452 0.021c3.364 0.321 7.274 0.504 11.226 0.504 13.487 0 26.476-2.132 38.649-6.077l-0.886 0.248c15.319-4.915 30.331-10.445 45.056-16.794 15.668-6.893 29.169-15.406 41.203-25.596l-0.243 0.201c12.776-10.73 24.226-22.123 34.66-34.405l0.34-0.411 15.995-21.299 21.996 14.95c8.876 3.093 16.469 6.619 23.641 10.79l-0.642-0.345c6.618 3.999 14.337 6.994 22.57 8.535l0.429 0.067c8.008 1.229 15.995 3.072 24.003 5.12 4.256 1.232 9.144 1.94 14.198 1.94 3.467 0 6.857-0.333 10.138-0.97l-0.333 0.054c2.528 0.152 5.485 0.238 8.461 0.238 24.626 0 47.871-5.915 68.391-16.402l-0.851 0.395c23.921-11.834 44.392-26.698 61.978-44.426l0.015-0.015c17.663-18.317 31.884-40.093 41.53-64.194l0.474-1.342c10.032-23.404 15.904-50.633 15.995-79.223v-0.035c0.023-1.142 0.037-2.488 0.037-3.837 0-28.359-5.897-55.341-16.532-79.785l0.501 1.292c-11.298-25.189-25.376-46.869-42.25-66.025l0.245 0.284c-16.684-19.018-37.421-34.057-60.9-43.834l-1.093-0.403c-22.357-9.522-48.286-15.642-75.473-16.978l-0.528-0.021-166.011 2.048v-65.536l166.011 2.253c2.742-0.129 5.957-0.202 9.189-0.202 32.639 0 63.532 7.479 91.057 20.817l-1.245-0.544c31.76 15.040 58.872 34.555 81.866 58.108l0.054 0.055c23.111 23.926 41.724 52.37 54.367 83.854l0.621 1.753c12.66 30.622 20.012 66.18 20.012 103.454 0 0.421-0.001 0.842-0.003 1.263v-0.065 2.048zM542.003 120.32l100.004 103.629 41.984-42.394-172.032-183.91-172.032 183.91 42.004 42.394 100.004-103.629v490.496l60.006 2.048v-492.544z" />
<glyph unicode="&#xe922;" glyph-name="play" d="M368.64 284.058v327.475c-0.003 0.12-0.004 0.262-0.004 0.404 0 11.311 9.169 20.48 20.48 20.48 4.126 0 7.968-1.22 11.183-3.32l-0.079 0.048c12.575-7.168 222.945-150.938 244.388-163.43 6.293-3.508 10.479-10.123 10.479-17.715s-4.186-14.208-10.376-17.663l-0.103-0.053c-15.442-9.011-226.755-153.805-245.023-163.84-2.991-1.807-6.603-2.876-10.465-2.876-11.311 0-20.48 9.169-20.48 20.48 0 0.003 0 0.006 0 0.009v0z" />
<glyph unicode="&#xe923;" glyph-name="pin" d="M266.24 704l491.52-192.512-264.192-43.008-43.008-276.48-184.32 512zM462.848 499.2l161.792 26.624-296.96 114.688 112.64-309.248 22.528 167.936z" />
<glyph unicode="&#xe924;" glyph-name="start-up" d="M670.925 470.938c17.373 17.374 28.119 41.376 28.119 67.888 0 53.025-42.985 96.010-96.010 96.010s-96.010-42.985-96.010-96.010c0-26.512 10.746-50.513 28.119-67.888v0c17.379-17.366 41.381-28.106 67.891-28.106s50.512 10.74 67.892 28.106l-0.001-0.001zM562.381 579.482c10.413 10.39 24.786 16.814 40.66 16.814 31.795 0 57.569-25.775 57.569-57.569s-25.775-57.569-57.569-57.569c-15.874 0-30.247 6.424-40.661 16.815l0.001-0.001c-10.501 10.397-17.004 24.817-17.004 40.755s6.502 30.358 16.999 40.751l0.005 0.005zM185.139 145.306c-0.516-1.675-0.814-3.6-0.814-5.595 0-5.309 2.107-10.126 5.529-13.661l-0.005 0.005c3.448-3.494 8.236-5.658 13.53-5.658 2.119 0 4.157 0.347 6.060 0.987l-0.134-0.039c16.589 5.12 164.045 52.019 203.571 91.546 10.241 10.145 18.86 21.903 25.45 34.867l0.355 0.769c0.454-0.042 0.982-0.066 1.516-0.066 3.048 0 5.913 0.783 8.404 2.159l-0.090-0.045c14.541 7.373 30.106 15.155 46.49 23.347 7.578-99.328 6.963-83.354 6.963-94.413 0.163-10.53 8.737-19.003 19.29-19.003 3.119 0 6.066 0.74 8.673 2.055l-0.111-0.051c37.441 17.044 67.93 43.846 89.003 77.191l0.494 0.837c18.641 29.78 29.696 65.963 29.696 104.727 0 0.046 0 0.092 0 0.137v-0.007 13.107c29.246 18.647 54.684 38.421 78.138 60.296l-0.314-0.289c95.437 92.16 116.941 205.414 112.23 338.125-0.313 10.094-8.358 18.21-18.393 18.635l-0.039 0.001c-132.71 4.506-246.17-16.998-338.33-112.435-21.181-22.379-40.543-46.948-57.568-73.174l-1.21-1.988h-15.974c-77.625-0.329-144.778-44.832-177.652-109.657l-0.524-1.14-4.71-9.216c-1.271-2.501-2.016-5.454-2.016-8.581 0-10.625 8.598-19.242 19.216-19.272h0.003c10.854 0-5.939 0.819 96.051-8.397-7.987-15.974-15.974-32.154-23.552-46.899-1.319-2.597-2.092-5.662-2.092-8.908 0-0.469 0.016-0.934 0.048-1.394l-0.003 0.062c-13.562-6.929-25.18-15.475-35.217-25.591l-0.009-0.009c-39.526-39.526-86.63-186.573-91.955-203.366zM443.392 291.123l-88.474 88.474c5.53 11.264 11.264 22.528 18.022 36.25l106.701-106.701c-13.926-6.963-24.781-12.493-36.25-18.022zM538.419 211.046l-6.349 81.51c25.805 13.107 52.429 27.238 78.234 42.394-3.224-51.88-30.779-96.705-71.292-123.535l-0.593-0.369zM801.178 737.382c0.121-4.548 0.19-9.902 0.19-15.272 0-34.379-2.825-68.099-8.255-100.939l0.488 3.571c-54.423 7.928-96.929 50.435-104.778 104.19l-0.080 0.668c29.161 5.080 62.741 7.983 97 7.983 5.428 0 10.838-0.073 16.231-0.218l-0.795 0.017zM509.952 636.211c37.497 39.708 85.311 69.29 139.161 84.474l2.151 0.518c11.502-68.779 64.986-122.331 132.78-133.806l0.955-0.134c-15.478-56.008-45.105-103.807-84.822-140.949l-0.17-0.158c-46.49-44.851-117.965-84.787-184.32-118.784l-124.518 124.518c33.997 66.355 73.933 137.83 118.784 184.32zM272.998 476.058c27.655 41.965 73.733 69.844 126.446 72.079l0.325 0.011c-15.36-26.214-29.696-53.453-43.213-79.872zM337.101 343.142l21.504-21.504-40.755-40.755c-3.485-3.485-5.641-8.301-5.641-13.619 0-10.637 8.623-19.26 19.26-19.26 5.319 0 10.134 2.156 13.619 5.641l40.755 40.755 21.504-21.709c-5.106-12.707-12.395-23.546-21.496-32.555l-0.008-0.008c-22.118-22.118-99.123-52.019-151.962-70.246 18.432 52.634 48.333 129.638 70.451 151.757 9.055 9.157 19.97 16.455 32.133 21.282l0.635 0.222zM507.699 443.699l-0.001 0.001c3.447-3.466 5.578-8.243 5.578-13.518s-2.13-10.052-5.577-13.517l-0.001-0.001c-3.477-3.503-8.295-5.672-13.62-5.672-10.598 0-19.19 8.592-19.19 19.19s8.592 19.19 19.19 19.19c5.325 0 10.144-2.169 13.621-5.673z" />
<glyph unicode="&#xe925;" glyph-name="computer" d="M765.194 724.48h-506.388c-0.32 0.007-0.698 0.011-1.077 0.011-28.846 0-52.304-23.071-52.928-51.767l-0.001-0.058v-345.498c0.604-28.862 24.144-52.027 53.094-52.027 0.321 0 0.641 0.003 0.96 0.009l-0.048-0.001h156.221l-24.003-69.018h-59.023c-0.251 0.013-0.546 0.020-0.842 0.020-9.569 0-17.326-7.757-17.326-17.326s7.757-17.326 17.326-17.326c0.296 0 0.591 0.007 0.883 0.022l-0.041-0.002h359.997c0.251-0.013 0.546-0.020 0.842-0.020 9.569 0 17.326 7.757 17.326 17.326s-7.757 17.326-17.326 17.326c-0.296 0-0.591-0.007-0.883-0.022l0.041 0.002h-59.023l-24.003 69.018h156.221c0.271-0.005 0.591-0.008 0.912-0.008 28.95 0 52.489 23.165 53.093 51.971l0.001 0.056v345.498c-0.625 28.755-24.083 51.825-52.929 51.825-0.379 0-0.756-0.004-1.133-0.012l0.056 0.001zM428.974 206.131l24.003 69.018h118.047l24.003-69.018h-166.052zM783.278 327.168c-0.171-9.652-8.036-17.41-17.713-17.41-0.102 0-0.203 0.001-0.305 0.003h-506.455c-0.086-0.002-0.188-0.002-0.289-0.002-9.677 0-17.541 7.759-17.712 17.394v17.219h542.392v-17.203zM401.183 478.31l-16.384 15.565 25.457 24.576 16.384-15.77c3.302-3.154 7.785-5.094 12.722-5.094 3.367 0 6.523 0.903 9.239 2.479l-0.088-0.047c9.248 5.37 19.95 9.73 31.269 12.522l0.844 0.176c7.678 1.915 13.305 8.674 13.476 16.775v22.137h36.004v-22.118c0.171-8.12 5.798-14.879 13.354-16.768l0.122-0.026c12.156-2.97 22.851-7.33 32.684-13.013l-0.592 0.316c2.628-1.529 5.784-2.432 9.151-2.432 4.937 0 9.42 1.941 12.729 5.101l-0.007-0.007 16.384 15.77 25.457-24.576-16.384-15.77c-3.243-3.039-5.263-7.348-5.263-12.13 0-3.244 0.93-6.271 2.538-8.829l-0.040 0.069c5.552-8.838 10.114-19.049 13.155-29.895l0.198-0.825c2.145-7.618 9.031-13.109 17.2-13.109 0.080 0 0.161 0.001 0.241 0.002h23.069v-34.406h-73.728c1.145 5.171 1.801 11.11 1.802 17.202v0.001c-2.466 47.791-41.816 85.608-89.999 85.608s-87.534-37.817-89.99-85.389l-0.009-0.219c0.009-6.098 0.672-12.036 1.924-17.753l-0.101 0.55h-73.728v34.406h23.081c0.068-0.001 0.148-0.001 0.229-0.001 8.169 0 15.055 5.491 17.169 12.983l0.030 0.126c3.228 11.671 7.791 21.882 13.638 31.207l-0.285-0.487c1.502 2.478 2.39 5.473 2.39 8.675 0 4.902-2.082 9.317-5.411 12.41l-0.011 0.010zM566.088 396.186c-0.016-6.18-1.149-12.091-3.207-17.548l0.114 0.345h-101.827c-1.954 5.112-3.087 11.025-3.092 17.201v0.002c1.622 28.541 25.162 51.072 53.965 51.072s52.343-22.531 53.958-50.929l0.006-0.143zM783.278 378.982h-73.196v51.814c-0.261 9.558-8.071 17.206-17.668 17.206-0.117 0-0.235-0.001-0.351-0.003h-27.794c-2.146 5.901-4.307 10.765-6.748 15.459l0.338-0.714 19.681 19.046c3.245 3.059 5.266 7.386 5.266 12.186s-2.021 9.127-5.258 12.178l-0.008 0.008-50.913 48.947c-3.35 3.047-7.821 4.913-12.728 4.913s-9.379-1.866-12.744-4.927l0.015 0.014-19.681-19.046c-4.25 2.145-9.348 4.228-14.618 5.926l-0.783 0.218v26.829c-0.261 9.558-8.071 17.206-17.668 17.206-0.117 0-0.235-0.001-0.351-0.003h-71.99c-0.099 0.002-0.216 0.003-0.334 0.003-9.597 0-17.407-7.649-17.668-17.182l-0.001-0.024v-26.829c-6.053-1.916-11.151-3.999-16.043-6.433l0.642 0.289-19.681 19.046c-3.35 3.047-7.821 4.913-12.728 4.913s-9.379-1.866-12.744-4.927l0.015 0.014-50.913-48.947c-3.245-3.059-5.266-7.386-5.266-12.186s2.021-9.127 5.258-12.178l0.008-0.008 19.681-19.046c-2.104-3.981-4.264-8.844-6.121-13.855l-0.289-0.891h-27.812c-0.105 0.002-0.229 0.004-0.354 0.004-9.593 0-17.398-7.651-17.648-17.184v-51.837h-73.196v293.683c0.261 9.558 8.071 17.206 17.668 17.206 0.117 0 0.235-0.001 0.351-0.003h506.37c0.099 0.002 0.216 0.003 0.334 0.003 9.597 0 17.407-7.649 17.668-17.182l0.001-0.024v-293.683zM692.081 655.462c-27.801-1.131-49.91-23.942-49.91-51.917 0-28.695 23.262-51.958 51.958-51.958 28.66 0 51.9 23.204 51.958 51.85v0.006c-0.603 28.862-24.143 52.029-53.094 52.029-0.349 0-0.698-0.003-1.046-0.010l0.052 0.001zM692.081 586.24c-9.274 0.373-16.65 7.982-16.65 17.313 0 9.569 7.757 17.326 17.326 17.326s17.326-7.757 17.326-17.326c0-0.039 0-0.077 0-0.116v0.006c-0.26-9.559-8.071-17.208-17.668-17.208-0.146 0-0.292 0.002-0.437 0.005h0.022z" />
<glyph unicode="&#xe926;" glyph-name="phone-2" d="M670.863 108.237c33.163 1.124 59.619 28.278 59.619 61.612 0 0.588-0.008 1.174-0.025 1.758l0.002-0.086v552.96c0.018 0.557 0.028 1.212 0.028 1.87 0 33.294-26.483 60.403-59.533 61.411l-0.093 0.002h-317.747c-33.134-1.021-59.605-28.126-59.605-61.413 0-0.658 0.010-1.313 0.031-1.966l-0.002 0.095v-552.96c-0.015-0.504-0.023-1.097-0.023-1.692 0-33.322 26.448-60.467 59.497-61.588l0.103-0.003h317.747zM333.271 724.48c-0.006 0.186-0.010 0.405-0.010 0.624 0 11.091 8.816 20.123 19.823 20.47l0.032 0.001h317.747c11.048-0.337 19.875-9.373 19.875-20.471 0-0.219-0.003-0.438-0.010-0.655l0.001 0.032v-21.094h-357.458v21.094zM333.271 661.197h357.458v-426.394h-357.458v426.394zM333.271 171.52v21.094h357.458v-21.094c0.006-0.186 0.009-0.404 0.009-0.623 0-11.098-8.828-20.134-19.844-20.47l-0.031-0.001h-317.747c-11.038 0.348-19.855 9.38-19.855 20.47 0 0.219 0.003 0.438 0.010 0.656l-0.001-0.032zM512 638.054c-2.694 0.175-5.841 0.275-9.011 0.275-81.754 0-148.029-66.275-148.029-148.029s66.275-148.029 148.029-148.029c81.715 0 147.966 66.212 148.029 147.913v0.006c0.037 1.225 0.059 2.667 0.059 4.113 0 77.764-61.713 141.114-138.836 143.746l-0.241 0.007zM512 384.717c-0.005 0-0.010 0-0.016 0-18.336 0-35.443 5.263-49.893 14.36l0.389-0.228c10.265 16.923 28.587 28.057 49.51 28.057s39.246-11.134 49.366-27.801l0.144-0.256c-14.055-8.869-31.157-14.131-49.487-14.131-0.005 0-0.009 0-0.014 0h0.001zM492.134 490.189c0.645 10.471 9.295 18.719 19.871 18.719 10.994 0 19.907-8.912 19.907-19.907s-8.912-19.907-19.907-19.907c-0.002 0-0.004 0-0.006 0v0c-11.048 0.337-19.875 9.373-19.875 20.471 0 0.219 0.003 0.438 0.010 0.655l-0.001-0.032zM591.401 426.906c-8.003 11.328-17.963 20.701-29.47 27.81l-0.431 0.248c6.318 10.004 10.070 22.176 10.076 35.224v0.002c0.078 1.145 0.123 2.481 0.123 3.828 0 32.971-26.728 59.699-59.699 59.699s-59.699-26.728-59.699-59.699c0-1.347 0.045-2.684 0.132-4.008l-0.010 0.18c0-0.006 0-0.013 0-0.021 0-13.043 3.753-25.21 10.238-35.479l-0.162 0.274c-11.942-7.351-21.904-16.724-29.691-27.744l-0.21-0.313c-12.452 17.494-19.907 39.297-19.907 62.841 0 0.155 0 0.311 0.001 0.466v-0.024c-0.104 1.706-0.164 3.7-0.164 5.707 0 54.948 44.544 99.492 99.492 99.492s99.492-44.544 99.492-99.492c0-2.008-0.059-4.002-0.177-5.98l0.013 0.273c0-0.116 0.001-0.253 0.001-0.391 0-23.567-7.471-45.389-20.175-63.227l0.226 0.335zM531.866 279.040c-0.645-10.471-9.295-18.719-19.871-18.719-10.994 0-19.907 8.912-19.907 19.907s8.912 19.907 19.907 19.907c0.002 0 0.004 0 0.006 0v0c11.048-0.337 19.875-9.373 19.875-20.471 0-0.219-0.003-0.438-0.010-0.655l0.001 0.032zM611.287 279.040c-0.656-10.45-9.292-18.678-19.849-18.678-10.983 0-19.886 8.903-19.886 19.886s8.903 19.886 19.886 19.886c0.001 0 0.003 0 0.004 0v0c11.038-0.348 19.855-9.38 19.855-20.47 0-0.219-0.003-0.438-0.010-0.656l0.001 0.032zM452.424 279.040c-0.645-10.471-9.295-18.719-19.871-18.719-10.994 0-19.907 8.912-19.907 19.907s8.912 19.907 19.907 19.907c0.002 0 0.004 0 0.006 0v0c11.048-0.337 19.875-9.373 19.875-20.471 0-0.219-0.003-0.438-0.010-0.655l0.001 0.032z" />
<glyph unicode="&#xe927;" glyph-name="edit" d="M808.96 539.136h-73.933c-10.18 0-18.432-8.252-18.432-18.432v-73.933c0-10.18 8.252-18.432 18.432-18.432v0h17.818c-9.61-115.148-98.733-206.8-211.849-220.254l-1.143-0.111c5.53 13.926 6.554 14.95 26.829 69.837 27.238 73.728 50.79 137.216 106.291 192.922 3.319 3.333 5.37 7.929 5.37 13.005s-2.052 9.672-5.371 13.005l0.001-0.001c-39.54 40.031-64.969 94.079-68.173 154.029l-0.025 0.595h18.227c10.236 0 18.534 8.298 18.534 18.534s-8.298 18.534-18.534 18.534h-18.637v56.73c0 10.18-8.252 18.432-18.432 18.432v0h-147.866c-10.18 0-18.432-8.252-18.432-18.432v0-56.73h-18.637c-10.236 0-18.534-8.298-18.534-18.534s8.298-18.534 18.534-18.534h18.227c-3.23-60.545-28.659-114.593-68.222-154.648l0.024 0.024c-3.319-3.333-5.37-7.929-5.37-13.005s2.052-9.672 5.371-13.005l-0.001 0.001c55.501-55.706 79.053-119.194 106.291-192.922 20.070-54.477 21.504-56.32 26.624-69.837-114.176 13.649-203.202 105.274-212.728 219.487l-0.059 0.878h17.818c10.18 0 18.432 8.252 18.432 18.432v0 73.933c0 10.18-8.252 18.432-18.432 18.432v0h-73.933c-0.061 0.001-0.133 0.001-0.205 0.001-10.18 0-18.432-8.252-18.432-18.432 0 0 0-0.001 0-0.001v0-73.933c0 0 0-0.001 0-0.001 0-10.18 8.252-18.432 18.432-18.432 0.072 0 0.144 0 0.216 0.001h19.035c6.724-95.097 60.382-176.331 137.732-221.291l1.328-0.712h-65.741v18.637c0 10.18-8.252 18.432-18.432 18.432v0h-73.933c-0.061 0.001-0.133 0.001-0.205 0.001-10.18 0-18.432-8.252-18.432-18.432 0 0 0-0.001 0-0.001v0-73.933c0.035-10.279 8.358-18.602 18.633-18.637h73.936c0 0 0.001 0 0.001 0 10.18 0 18.432 8.252 18.432 18.432 0 0.072 0 0.144-0.001 0.216v-0.011 18.432h409.19v-18.432c-0.001-0.061-0.001-0.133-0.001-0.205 0-10.18 8.252-18.432 18.432-18.432 0 0 0.001 0 0.001 0h73.933c10.279 0.035 18.602 8.358 18.637 18.633v73.936c0 0 0 0.001 0 0.001 0 10.18-8.252 18.432-18.432 18.432-0.072 0-0.144 0-0.216-0.001h-73.922c-10.18 0-18.432-8.252-18.432-18.432v-18.637h-65.741c78.677 45.672 132.335 126.905 139.009 221.119l0.050 0.885h19.046c0.061-0.001 0.133-0.001 0.205-0.001 10.18 0 18.432 8.252 18.432 18.432 0 0 0 0.001 0 0.001v0 73.933c0 0 0 0.001 0 0.001 0 10.18-8.252 18.432-18.432 18.432-0.072 0-0.144 0-0.216-0.001h0.011zM270.336 465.203h-36.864v37.069h36.864v-37.069zM270.336 169.472h-36.864v36.864h36.864v-36.864zM456.499 726.528h111.002v-38.093h-111.002v38.093zM512 502.272c-10.18 0-18.432 8.252-18.432 18.432s8.252 18.432 18.432 18.432c10.18 0 18.432-8.252 18.432-18.432v0c0-10.18-8.252-18.432-18.432-18.432v0zM530.432 286.413v182.067c21.777 7.83 37.069 28.305 37.069 52.351 0 30.652-24.849 55.501-55.501 55.501s-55.501-24.849-55.501-55.501c0-24.046 15.292-44.521 36.682-52.229l0.387-0.122v-182.067c-0.614 1.434-1.024 2.867-1.638 4.096-25.6 69.427-49.766 135.168-102.4 193.331 38.935 44.913 63.681 103.063 66.741 166.898l0.024 0.628h111.411c3.083-64.464 27.83-122.613 67.057-167.871l-0.292 0.344c-52.634-58.163-76.8-123.904-102.4-193.331-0.614-1.229-1.024-2.662-1.638-4.096zM753.664 206.336h36.864v-36.864h-36.864v36.864zM790.528 465.203h-36.864v37.069h36.864v-37.069z" />
<glyph unicode="&#xe928;" glyph-name="cloud" d="M684.851 605.696h-7.987c-24.067 91.523-106.072 157.93-203.587 157.93-104.138 0-190.588-75.734-207.276-175.13l-0.171-1.232c-48.983-27.676-81.511-79.401-81.511-138.724 0-0.19 0-0.38 0.001-0.57v0.029c-0.007-0.547-0.011-1.193-0.011-1.839 0-85.291 68.503-154.582 153.491-155.855l0.12-0.001h49.357l109.363-149.914c3.516-4.766 9.064-7.857 15.34-7.987h0.020c6.32 0.029 11.905 3.151 15.321 7.93l0.039 0.057 109.568 149.914h47.923c87.093 0 157.696 70.603 157.696 157.696s-70.603 157.696-157.696 157.696v0zM512 185.037l-76.8 105.267h38.502c10.548 0.125 19.050 8.705 19.050 19.27 0 0.137-0.001 0.274-0.004 0.411v-0.020 138.035h38.502v-138.035c-0.001-0.061-0.001-0.133-0.001-0.206 0-10.674 8.595-19.34 19.241-19.455h38.309zM684.851 329.626h-115.302v118.374h19.251c10.915 0 19.763 8.848 19.763 19.763s-8.848 19.763-19.763 19.763h-153.6c-10.915 0-19.763-8.848-19.763-19.763s8.848-19.763 19.763-19.763h19.251v-118.374h-116.531c-64.045 1.738-115.301 54.070-115.301 118.374s51.256 116.636 115.141 118.371l0.161 0.003c10.858 0 19.661 8.802 19.661 19.661s-8.802 19.661-19.661 19.661v0c-0.215 0.001-0.468 0.002-0.723 0.002-9.815 0-19.403-0.97-28.674-2.819l0.929 0.155c22.353 70.68 87.347 121.020 164.099 121.020 78.403 0 144.536-52.529 165.127-124.313l0.298-1.212c-5.555-1.647-10.175-3.388-14.64-5.409l0.714 0.289c-6.995-3.183-11.77-10.111-11.77-18.155 0-2.761 0.563-5.39 1.58-7.78l-0.049 0.13c2.843-7.097 9.663-12.018 17.632-12.018 2.733 0 5.332 0.579 7.679 1.621l-0.121-0.048c13.109 5.825 28.403 9.217 44.489 9.217 0.127 0 0.254 0 0.382-0.001h-0.020c64.434-1.237 116.193-53.761 116.193-118.374s-51.759-117.138-116.077-118.373l-0.115-0.002z" />
<glyph unicode="&#xe929;" glyph-name="graph" d="M958.464 163.328h-71.68v602.112h-137.216v-602.112h-67.584v399.36h-137.216v-399.36h-67.584v466.944h-137.216v-466.944h-67.584v299.008h-135.168v-296.96h-59.392c-10.24 0-16.384-8.192-16.384-16.384 0-10.24 8.192-16.384 16.384-16.384h880.64c10.24 0 16.384 8.192 16.384 16.384 2.048 8.192-6.144 14.336-16.384 14.336zM784.384 730.624h67.584v-567.296h-67.584v567.296zM579.584 529.92h67.584v-364.544h-67.584v364.544zM374.784 597.504h67.584v-432.128h-67.584v432.128zM169.984 427.52h67.584v-264.192h-67.584v264.192z" />
<glyph unicode="&#xe92a;" glyph-name="phone" d="M532.48 165.376h-40.96c-24.576 0-47.104-20.48-47.104-45.056v-8.192c0-24.576 20.48-45.056 47.104-45.056h40.96c24.576 0 47.104 20.48 47.104 45.056v8.192c0 24.576-20.48 45.056-47.104 45.056zM546.816 112.128c0-6.144-6.144-12.288-12.288-12.288 0 0 0 0 0 0h-40.96c-6.144 0-12.288 6.144-12.288 12.288 0 0 0 0 0 0v8.192c0 6.144 6.144 12.288 12.288 12.288 0 0 0 0 0 0h40.96c6.144 0 12.288-6.144 12.288-12.288 0 0 0 0 0 0v-8.192zM737.28 878.080h-450.56c-32.768 0-61.44-26.624-61.44-59.392v-741.376c0-32.768 28.672-59.392 61.44-59.392h450.56c32.768 0 61.44 26.624 61.44 59.392v741.376c0 32.768-28.672 59.392-61.44 59.392zM763.904 214.528h-503.808v532.48h505.856v-532.48zM763.904 77.312c0-14.336-12.288-26.624-26.624-26.624 0 0 0 0 0 0h-450.56c-14.336 0-26.624 12.288-26.624 26.624 0 0 0 0 0 0v104.448h505.856v-104.448zM763.904 779.776h-503.808v38.912c0 14.336 12.288 26.624 26.624 26.624 0 0 0 0 0 0h450.56c14.336 0 26.624-12.288 26.624-26.624 0 0 0 0 0 0v-38.912zM714.752 828.928c0 0 0 0 0 0h-16.384c-8.192 0-16.384-8.192-16.384-16.384s8.192-16.384 16.384-16.384c0 0 0 0 0 0h16.384c8.192 0 16.384 8.192 16.384 16.384s-8.192 16.384-16.384 16.384zM595.968 828.928c0 0 0 0 0 0h-167.936c-8.192 0-16.384-8.192-16.384-16.384s8.192-16.384 16.384-16.384c0 0 0 0 0 0h167.936c8.192 0 16.384 8.192 16.384 16.384s-6.144 16.384-16.384 16.384z" />
<glyph unicode="&#xe92b;" glyph-name="happy" d="M512 857.6c0.81 0.006 1.767 0.009 2.725 0.009 56.509 0 110.273-11.756 158.978-32.956l-2.574 0.998c98.702-42.723 175.799-119.82 217.489-215.851l1.033-2.671c20.202-46.991 31.949-101.689 31.949-159.13s-11.747-112.138-32.971-161.82l1.022 2.69c-42.723-98.702-119.82-175.799-215.851-217.489l-2.671-1.033c-46.991-20.202-101.689-31.949-159.13-31.949s-112.138 11.747-161.82 32.971l2.69-1.022c-98.702 42.723-175.799 119.82-217.489 215.851l-1.033 2.671c-20.202 46.991-31.949 101.689-31.949 159.13s11.747 112.138 32.971 161.82l-1.022-2.69c42.723 98.702 119.82 175.799 215.851 217.489l2.671 1.033c46.132 20.202 99.895 31.958 156.405 31.958 0.958 0 1.916-0.003 2.873-0.010l-0.148 0.001zM512 86.323c0.772-0.006 1.684-0.010 2.598-0.010 49.959 0 97.435 10.633 140.288 29.759l-2.188-0.873c86.556 37.882 154.221 105.547 191.18 189.747l0.922 2.356c18.253 41.518 28.877 89.919 28.877 140.8s-10.623 99.281-29.773 143.103l0.897-2.303c-37.972 86.441-105.611 154.014-189.744 190.974l-2.358 0.924c-41.518 18.253-89.919 28.877-140.8 28.877s-99.281-10.623-143.103-29.773l2.303 0.897c-86.376-37.974-153.924-105.521-190.971-189.541l-0.927-2.357c-18.253-41.518-28.877-89.919-28.877-140.8s10.623-99.281 29.773-143.103l-0.897 2.303c37.884-86.492 105.457-154.131 189.544-191.177l2.354-0.925c40.773-18.254 88.367-28.886 138.444-28.886 0.864 0 1.728 0.003 2.591 0.009l-0.132-0.001zM729.498 424.038c0 0.029 0 0.062 0 0.096 0 3.474-0.832 6.753-2.309 9.65l0.056-0.121c-1.588 3.061-3.499 5.69-5.742 7.995l0.007-0.007c-1.984 2-4.371 3.597-7.028 4.661l-0.14 0.049c-2.865 1.042-6.173 1.645-9.621 1.645-0.218 0-0.435-0.002-0.651-0.007l0.032 0.001c-0.066 0.001-0.145 0.001-0.224 0.001-3.091 0-6.040-0.602-8.739-1.695l0.156 0.056c-2.869-1.113-5.322-2.711-7.377-4.715l0.005 0.004c-2.087-2.326-3.924-4.948-5.427-7.775l-0.103-0.213c-1.489-2.792-2.39-6.096-2.457-9.605v-0.021c0.003-0.397 0.005-0.866 0.005-1.336 0-68.885-41.745-128.021-101.317-153.489l-1.088-0.414c-19.507-8.625-42.256-13.645-66.178-13.645-92.398 0-167.301 74.903-167.301 167.301 0 0.556 0.003 1.112 0.008 1.667l-0.001-0.085c-0.067 3.529-0.969 6.833-2.514 9.743l0.057-0.117c-1.605 3.039-3.442 5.661-5.562 8.024l0.032-0.037c-2.077 1.953-4.521 3.544-7.215 4.653l-0.158 0.058c-2.589 1.037-5.59 1.639-8.732 1.639-0.026 0-0.053 0-0.079 0h0.004c-0.184 0.004-0.401 0.007-0.619 0.007-3.448 0-6.756-0.603-9.823-1.709l0.202 0.064c-2.797-1.113-5.184-2.711-7.167-4.709l-0.001-0.001c-2.236-2.297-4.146-4.927-5.647-7.804l-0.087-0.183c-1.489-2.792-2.39-6.096-2.457-9.605v-0.021c-0.002-0.373-0.004-0.815-0.004-1.256 0-29.953 6.488-58.39 18.135-83.984l-0.518 1.272c23.527-51.905 64.217-92.594 114.683-115.536l1.439-0.585c24.719-11.133 53.586-17.619 83.968-17.619s59.249 6.486 85.292 18.149l-1.324-0.53c26.686 12.018 49.482 27.93 68.808 47.304l0.005 0.005c19.309 19.372 35.209 42.156 46.717 67.366l0.592 1.447c11.003 24.185 17.416 52.449 17.416 82.212 0 0.617-0.003 1.234-0.008 1.851l0.001-0.094zM319.898 591.974c0.062-6.626 1.257-12.953 3.402-18.823l-0.125 0.391c2.244-5.902 5.514-10.95 9.634-15.163l-0.008 0.008c4.283-4.232 9.296-7.738 14.831-10.309l0.325-0.135c5.595-2.467 12.119-3.904 18.979-3.904 0.384 0 0.767 0.004 1.149 0.013l-0.057-0.001c0.070 0 0.153-0.001 0.236-0.001 6.591 0 12.847 1.433 18.474 4.006l-0.278-0.114c11.428 5.209 20.391 14.172 25.47 25.282l0.13 0.318c2.458 5.349 3.892 11.605 3.892 18.196 0 0.083 0 0.166-0.001 0.249v-0.013c0.008 0.325 0.012 0.708 0.012 1.092 0 6.859-1.436 13.383-4.024 19.288l0.121-0.309c-2.707 5.859-6.213 10.872-10.45 15.16l0.005-0.005c-4.206 4.111-9.253 7.381-14.857 9.525l-0.298 0.1c-5.479 2.019-11.806 3.215-18.405 3.277h-0.027c-0.121 0.001-0.263 0.001-0.406 0.001-7.041 0-13.802-1.201-20.090-3.408l0.425 0.13c-11.565-4.258-20.523-13.216-24.688-24.495l-0.092-0.286c-2.078-5.862-3.278-12.623-3.278-19.665 0-0.143 0-0.285 0.001-0.428v0.022zM608.051 591.974c0-0.070-0.001-0.153-0.001-0.236 0-6.591 1.433-12.847 4.006-18.474l-0.114 0.278c5.209-11.428 14.172-20.391 25.282-25.47l0.318-0.13c5.349-2.458 11.605-3.892 18.196-3.892 0.083 0 0.166 0 0.249 0.001h-0.013c0.286-0.006 0.623-0.009 0.96-0.009 6.904 0 13.473 1.435 19.425 4.023l-0.315-0.122c5.859 2.707 10.872 6.213 15.16 10.45l-0.005-0.005c4.111 4.206 7.381 9.253 9.525 14.857l0.1 0.298c2.019 5.479 3.215 11.806 3.277 18.405v0.027c0.001 0.121 0.001 0.263 0.001 0.406 0 7.041-1.201 13.802-3.408 20.090l0.13-0.425c-4.258 11.565-13.216 20.523-24.495 24.688l-0.286 0.092c-5.904 2.077-12.711 3.277-19.799 3.277-0.096 0-0.191 0-0.287-0.001h0.015c-6.626-0.062-12.953-1.257-18.823-3.402l0.391 0.125c-5.902-2.244-10.95-5.514-15.163-9.634l0.008 0.008c-4.232-4.283-7.738-9.296-10.309-14.831l-0.135-0.325c-2.467-5.595-3.904-12.119-3.904-18.979 0-0.384 0.004-0.767 0.013-1.149l-0.001 0.057z" />
<glyph unicode="&#xe92c;" glyph-name="list" d="M198.451 855.040h627.098v-814.285l-96.051 119.808-71.885-91.136-72.090 91.136-71.885-91.136-72.090 91.136-71.885-91.136-73.728 91.136-97.485-119.808v814.285zM777.626 178.176v628.941h-531.251v-632.013l51.2 62.259 72.090-91.136 71.885 91.136 72.090-91.136 71.885 91.136 72.090-91.136 71.885 91.136 48.128-59.187zM632.013 663.142v47.923h-289.587v-47.923h289.587zM535.962 469.402v48.128h-193.536v-48.128h193.536zM679.936 565.453v47.923h-337.51v-47.923h337.51zM344.064 373.35v-47.923h335.872v47.923h-335.872z" />
<glyph unicode="&#xe92d;" glyph-name="write" d="M640.922 858.214l256-256 1.638-563.2h-603.136l1.434 47.923h552.141l1.638 481.69h-243.302l1.638 241.664h-337.715l1.638-48.128h20.89c0.356 0.006 0.776 0.010 1.197 0.010 9.92 0 19.364-2.037 27.936-5.716l-0.462 0.176c8.987-3.936 16.705-9.029 23.405-15.207l-0.057 0.052c6.765-6.259 11.971-14.105 15.036-22.951l0.119-0.396c3.034-8.113 5.274-17.549 6.305-27.345l0.043-0.508-1.638-412.877-116.736-240.026-123.085 238.387 1.434 414.515c-0.186 1.632-0.292 3.525-0.292 5.441 0 8.16 1.923 15.872 5.34 22.705l-0.133-0.294c4.138 9.023 9.5 16.745 15.987 23.36l-0.013-0.013c12.85 12.442 30.254 20.248 49.478 20.683l0.084 0.002h27.238l-1.638 96.051h417.587zM266.547 182.989l52.838 105.677-1.638 281.6h-46.49l-1.434-291.226h-46.49l-1.638 291.226h-46.285l-1.638-281.6 54.477-105.677h38.298zM319.386 690.278c-0.905 2.62-1.756 5.854-2.385 9.167l-0.072 0.459c-0.615 3.237-2.309 6.002-4.688 7.969l-0.023 0.018c-2.3 1.856-4.934 3.438-7.772 4.63l-0.215 0.080c-2.889 1.044-6.224 1.648-9.699 1.648-0.262 0-0.524-0.003-0.784-0.010l0.039 0.001h-94.413c-0.335 0.018-0.728 0.028-1.122 0.028-3.066 0-5.988-0.612-8.652-1.721l0.149 0.055c-2.729-1.468-5.075-3.029-7.26-4.782l0.092 0.072c-2.506-2.066-4.417-4.769-5.492-7.863l-0.038-0.124c-1.229-3.277-2.253-6.554-3.277-9.626l1.638-72.090h142.336l1.638 72.090zM656.896 775.066l-1.638-158.515h160.154l-160.154 158.515h1.638z" />
<glyph unicode="&#xe92e;" glyph-name="target" d="M923.546 471.040v-47.923h-99.328c-3.124-39.837-13.37-76.583-29.472-109.974l0.8 1.84c-16.589-34.493-37.498-64.044-62.516-89.55l0.052 0.053c-25.102-25.569-54.753-46.568-87.658-61.705l-1.839-0.759c-31.857-14.715-68.867-24.652-107.799-27.778l-1.155-0.075v-97.69h-47.923v97.69c-77.151 6.2-145.434 39.871-195.959 91.101l-0.035 0.035c-24.638 25.229-45.275 54.509-60.794 86.719l-0.851 1.96c-15.302 31.552-25.548 68.298-28.604 107.066l-0.068 1.068h-99.328v47.923h99.328c3.124 39.837 13.37 76.583 29.472 109.974l-0.8-1.84c16.37 34.169 37.007 63.449 61.707 88.743l-0.063-0.064c50.559 51.265 118.842 84.936 194.901 91.065l1.092 0.071v99.328h47.923v-99.328c40.086-3.201 77.097-13.137 110.993-28.692l-2.039 0.839c34.744-15.895 64.395-36.895 89.453-62.419l0.044-0.045c24.966-25.454 45.875-55.005 61.605-87.528l0.859-1.969c15.302-31.552 25.548-68.298 28.604-107.066l0.068-1.068h99.328zM534.63 183.091c33.462 3.318 64.132 12.11 92.189 25.497l-1.668-0.716c28.735 13.595 53.313 31.034 74.347 52.024l-0.005-0.005c20.842 20.857 38.256 45.144 51.322 71.94l0.697 1.583c12.698 26.139 21.493 56.533 24.69 88.575l0.091 1.127h-94.413v47.923h94.413c-3.288 33.17-12.083 63.564-25.484 91.317l0.703-1.614c-13.763 28.379-31.177 52.666-52.021 73.525l0.002-0.002c-21.030 20.985-45.608 38.424-72.754 51.339l-1.588 0.68c-26.389 12.671-57.059 21.463-89.369 24.688l-1.153 0.093v-92.774h-47.923v92.774c-32.871-3.197-62.998-12-90.423-25.464l1.539 0.683c-28.021-13.933-52.017-31.321-72.703-52.018l-0.001-0.001c-20.842-20.857-38.256-45.144-51.322-71.94l-0.697-1.583c-12.698-26.139-21.493-56.533-24.69-88.575l-0.091-1.127h94.413v-47.923h-94.413c3.288-33.17 12.083-63.564 25.484-91.317l-0.703 1.614c13.763-28.379 31.177-52.666 52.021-73.525l-0.002 0.002c20.687-20.698 44.683-38.086 71.126-51.305l1.578-0.714c25.885-12.78 56.011-21.584 87.807-24.696l1.076-0.085v96.051h47.923v-96.051z" />
<glyph unicode="&#xe92f;" glyph-name="arrow-right-style-1" d="M706.314 288.973l81.92 71.68c4.302 3.809 7 9.344 7 15.51 0 5.205-1.922 9.96-5.095 13.596l0.021-0.024c-3.771 4.268-9.258 6.946-15.371 6.946-5.195 0-9.938-1.934-13.549-5.122l0.022 0.019-81.92-71.68c-4.29-3.773-6.982-9.273-6.982-15.402 0-5.171 1.916-9.894 5.077-13.498l-0.020 0.023c3.712-4.276 9.156-6.964 15.228-6.964 0.068 0 0.136 0 0.203 0.001h-0.010c0.002 0 0.005 0 0.008 0 5.145 0 9.856 1.858 13.499 4.941l-0.031-0.025zM822.682 450.355v0zM829.42 427.418h-645.1c-11.311 0-20.48 9.169-20.48 20.48s9.169 20.48 20.48 20.48v0h617.82l-122.88 107.315c-4.319 3.781-7.031 9.305-7.031 15.462 0 11.331 9.186 20.517 20.517 20.517 5.174 0 9.901-1.915 13.51-5.075l-0.024 0.020 143.36-125.338c6.46-5.661 10.517-13.928 10.517-23.142 0-16.949-13.725-30.691-30.667-30.72h-0.003z" />
<glyph unicode="&#xe930;" glyph-name="paper-plane" d="M921.395 698.675c0.056 0.401 0.128 0.747 0.219 1.086l-0.014-0.062c0.005 0.152 0.008 0.331 0.008 0.51 0 0.905-0.078 1.792-0.226 2.654l0.013-0.092v0.614c-0.285 1.465-0.783 2.769-1.466 3.952l0.033-0.061c-0.064 0.253-0.209 0.465-0.407 0.612l-0.003 0.002v0.205c-0.080 0.185-0.225 0.329-0.405 0.408l-0.005 0.002c-0.812 1.182-1.76 2.195-2.839 3.050l-0.029 0.022c-0.218 0.209-0.498 0.355-0.81 0.408l-0.009 0.001c-0.931 0.715-2.023 1.276-3.207 1.621l-0.070 0.017c-0.41 0.205-1.024 0.205-1.434 0.41-0.77 0.136-1.657 0.213-2.562 0.213-0.179 0-0.358-0.003-0.536-0.009l0.026 0.001c-0.081 0.005-0.175 0.008-0.27 0.008-0.489 0-0.96-0.078-1.4-0.222l0.032 0.009h-1.024l-791.962-159.744c-5.494-1.144-9.714-5.502-10.639-10.98l-0.011-0.079c-0.089-0.578-0.139-1.244-0.139-1.922 0-5.088 2.845-9.511 7.031-11.765l0.071-0.035 226.918-116.941 39.936-215.45v-0.41c-0.098-0.493-0.154-1.059-0.154-1.638s0.056-1.146 0.163-1.694l-0.009 0.056c-0.005-0.070-0.008-0.152-0.008-0.235 0-0.43 0.078-0.842 0.221-1.222l-0.008 0.024c0.45-1.454 0.937-2.675 1.505-3.85l-0.071 0.163c0.205-0.205 0.205-0.41 0.41-0.614 0-0.113 0.092-0.205 0.205-0.205v0c0.152-0.255 0.359-0.462 0.606-0.61l0.008-0.004c0.588-0.861 1.264-1.602 2.030-2.239l0.018-0.014 0.205-0.205c0.205-0.205 0.41-0.205 0.614-0.41 1.024-0.41 1.843-0.819 2.662-1.229 0.352-0.217 0.769-0.364 1.217-0.409l0.012-0.001c1.099-0.385 2.366-0.61 3.684-0.614h0.821c3.876 0.033 7.361 1.677 9.824 4.294l0.007 0.007 151.142 98.304 158.31-100.352c2.055-1.411 4.597-2.253 7.335-2.253 0.013 0 0.027 0 0.040 0h-0.002c1.533 0.003 3.013 0.227 4.411 0.642l-0.11-0.028c3.891 1.385 6.92 4.347 8.365 8.097l0.032 0.095 191.078 505.651c0.013 0.53 0.164 1.023 0.417 1.447l-0.008-0.014v0.614c0.113 0.103 0.189 0.246 0.205 0.407v0.003zM763.29 613.683l-327.27-234.701c-0.532-0.431-1.003-0.901-1.42-1.416l-0.014-0.018c-0.185-0.080-0.329-0.225-0.408-0.405l-0.002-0.005c-0.329-0.286-0.603-0.625-0.81-1.005l-0.009-0.019c-0.238-0.296-0.444-0.633-0.603-0.995l-0.011-0.029c-0.57-0.707-1.052-1.518-1.41-2.393l-0.023-0.065c0.002-0.016 0.003-0.034 0.003-0.053 0-0.152-0.083-0.285-0.206-0.356l-0.002-0.001v-0.205l-37.478-118.989-29.696 160.973zM414.72 227.43l37.274 119.808 57.754-36.659 16.589-10.445-56.32-36.659zM812.237 668.16l-463.462-231.834-192.922 99.328zM710.042 215.347l-241.869 153.395 411.238 295.322z" />
</font>
</defs>
</svg>
